ExDesi.com Desi Torrents Links and Streams: Splitsvilla 6 - Hot As Hell - Episode 9 - South Side Story - ExDesi.com Desi Torrents Links and Streams

Jump to content

Page 1 of 1
  • You cannot start a new topic
  • This topic is locked

Old topic!
Guest, the last post of this topic is over 180 days and a new post will now be considered as flood!

Rate Topic: -----

User is offline redvirus1989 

  • Desire God Not His Gifts
  • Group: Members
  • Topics: 17
  • Posts: 67
  • Joined: 27-January 10
  • Uploaded 174.88gb
  • Downloaded 106.49gb
  • Ratio 1.64 ratio
  • LocationNew Delhi
  • Thanked: 47 times

Posted 24 July 2013 - 06:37 PM (#1)

Splitsvilla 6 - Hot As Hell - Episode 9 - South Side Story


GeneralFormat : MPEG-4Format profile : Base Media / Version 2Codec ID : mp42File size : 746 MiBDuration : 40mn 15sOverall bit rate mode : VariableOverall bit rate : 2 592 KbpsEncoded date : UTC 2013-07-19 13:57:33Tagged date : UTC 2013-07-19 13:57:33gsst : 0gstd : 2415270gssd : BB64FFD88HH1374671886579606gshh : r5---sn-ci5gup-qxae.c.youtube.com
VideoID : 1Format : AVCFormat/Info : Advanced Video CodecFormat profile : High@L3.1Format settings, CABAC : YesFormat settings, ReFrames : 1 frameFormat settings, GOP : M=1, N=60Codec ID : avc1Codec ID/Info : Advanced Video CodingDuration : 40mn 15sBit rate : 2 397 KbpsMaximum bit rate : 8 210 KbpsWidth : 1 080 pixelsHeight : 720 pixelsDisplay aspect ratio : 3:2Frame rate mode : ConstantFrame rate : 25.000 fpsColor space : YUVChroma subsampling : 4:2:0Bit depth : 8 bitsScan type : ProgressiveBits/(Pixel*Frame) : 0.123Stream size : 690 MiB (92%)Tagged date : UTC 2013-07-19 13:59:47
AudioID : 2Format : AACFormat/Info : Advanced Audio CodecFormat profile : LCCodec ID : 40Duration : 40mn 15sBit rate mode : VariableBit rate : 192 KbpsMaximum bit rate : 203 KbpsChannel(s) : 2 channelsChannel positions : Front: L RSampling rate : 44.1 KHzCompression mode : LossyStream size : 55.3 MiB (7%)Title : IsoMedia File Produced by Google, 5-11-2011Encoded date : UTC 2013-07-19 13:59:05Tagged date : UTC 2013-07-19 13:59:47



Screenshots:-
Posted Image


Posted Image

Posted Image



Posted Image




Posted Image




Posted Image




Posted Image




Posted Image




Posted Image




Posted Image




Posted Image




Posted Image




Posted Image




Posted Image




:rolleyes::rolleyes: Keep on seeding after downloading.
:> Sharing Is Caring B)


:excl: :excl: Also If you like remember to thank & add reps.Posted Image


Attached File  Splitsvilla 6 - Hot As Hell - Episode 9 - South Side Story.mp4.torrent Toggle

*
Free leech

Filename
Splitsvilla 6 - Hot As Hell - Episode 9 - South Side Story.mp4
Filesize
746.22mb
Files
1
Health
Seeders: 0 Leechers: 0 Completed: 10
ratio ---


Posted Image
1


Thanked by 3 Members:

User is offline imindimov8 

  • indimov™
  • Group: [DaR]
  • Others: [ExDc]
  • Topics: 709
  • Posts: 8,684
  • Joined: 17-October 09
  • Uploaded 6.01tb
  • Downloaded 41.95gb
  • Ratio 146.79 ratio
  • LocationRajdhani
  • Thanked: 4540 times

Posted 24 July 2013 - 06:40 PM (#2)

:tedr:

:m8:

:ke:
0


Share this topic:



Old topic!
Guest, the last post of this topic is over {days} days and a new post will now be considered as flood!

Page 1 of 1
  • You cannot start a new topic
  • This topic is locked


Enter your sign in name and password


Sign in options
  Or sign in with these services