ExDesi.com Desi Torrents Links and Streams: Ashok- Ghayal The Fighter Man 2006 Hindi Dubbed Web Rip 707 MB BY { Jolly Movies } - ExDesi.com Desi Torrents Links and Streams

Jump to content

Page 1 of 1
  • You cannot start a new topic
  • You cannot reply to this topic

Rate Topic: ***** 1 Votes

User is offline gurpreet_singh 

  • Jolly Movies
  • Group: [EXD MILITIA]
  • Others: [ExDe$]
  • Topics: 98
  • Posts: 350
  • Joined: 04-February 10
  • Uploaded 4.01tb
  • Downloaded 516.61gb
  • Ratio 7.95 ratio
  • Thanked: 1051 times

Posted 26 April 2013 - 01:36 PM (#1)

Ashok- Ghayal The Fighter Man 2006 Hindi Dubbed Web Rip 707 MB BY { Jolly Movies }



Posted Image



Complete name : Ashok- Ghayal The Fighter Man 2006 Hindi Dubbed Web Rip 707 MB BY { Jolly Movies }.mp4
Format : MPEG-4
Format profile : Base Media / Version 2
Codec ID : mp42
File size : 707 MiB
Duration : 2h 37mn
Overall bit rate mode : Variable
Overall bit rate : 628 Kbps


Video
ID : 1
Format : AVC
Format/Info : Advanced Video Codec
Format profile : Baseline@L3.0
Format settings, CABAC : No
Format settings, ReFrames : 1 frame
Codec ID : avc1
Codec ID/Info : Advanced Video Coding
Duration : 2h 37mn
Bit rate : 529 Kbps
Maximum bit rate : 1 740 Kbps
Width : 640 pixels
Height : 350 pixels
Display aspect ratio : 1.85:1
Frame rate mode : Constant
Frame rate : 25.000 fps
Color space : YUV
Chroma subsampling : 4:2:0
Bit depth : 8 bits
Scan type : Progressive
Bits/(Pixel*Frame) : 0.095
Stream size : 596 MiB (84%)


Audio
ID : 2
Format : AAC
Format/Info : Advanced Audio Codec
Format profile : LC
Codec ID : 40
Duration : 2h 37mn
Bit rate mode : Variable
Bit rate : 96.0 Kbps
Maximum bit rate : 104 Kbps
Channel(s) : 2 channels
Channel positions : Front: L R
Sampling rate : 44.1 KHz
Compression mode : Lossy
Stream size : 108 MiB (15%)
Title : { Jolly Movies }


Posted Image
Posted Image
Posted Image
Posted Image
Posted Image
Posted Image
Posted Image










Posted Image











Attached File  Ashok- Ghayal The Fighter Man 2006 Hindi Dubbed Web Rip 707 MB BY Jolly Movies .torrent Toggle

Filename
Ashok- Ghayal The Fighter Man 2006 Hindi Dubbed Web Rip 707 MB BY { Jolly Movies }
Filesize
717.6mb
Files
2
Health
Seeders: 0 Leechers: 0 Completed: 64
ratio ---


2


User is offline robinhood123 

  • ExD ka Shair
  • Group: Members
  • Topics: 1
  • Posts: 553
  • Joined: 17-February 11
  • Uploaded 4.38tb
  • Downloaded 4.13tb
  • Ratio 1.06 ratio
  • Thanked: 0 times

Posted 26 April 2013 - 05:04 PM (#2)

THANKS
0


User is offline sukhi1986 

  • Registered Members
  • PipPipPip
  • Group: Members
  • Topics: 0
  • Posts: 39
  • Joined: 14-October 07
  • Uploaded 189.8gb
  • Downloaded 547.57gb
  • Ratio 0.35 ratio
  • Thanked: 0 times

Posted 10 June 2013 - 05:51 PM (#3)

nice share..........
0


User is offline shahzadsmt 

  • Registered Members
  • Group: Members
  • Topics: 0
  • Posts: 426
  • Joined: 27-June 07
  • Uploaded 1.9tb
  • Downloaded 1.27tb
  • Ratio 1.50 ratio
  • Thanked: 0 times

Posted 15 June 2013 - 02:02 AM (#4)

thanks
0


Share this topic:


Page 1 of 1
  • You cannot start a new topic
  • You cannot reply to this topic


Enter your sign in name and password


Sign in options
  Or sign in with these services