ExDesi.com Desi Torrents Links and Streams: Ek Shriman Ek Shrimati [1969] [DVD9] - [ExDR] - ExDesi.com Desi Torrents Links and Streams

Jump to content

Page 1 of 1
  • You cannot start a new topic
  • This topic is locked

Old topic!
Guest, the last post of this topic is over 180 days and a new post will now be considered as flood!

Rate Topic: ***** 1 Votes

User is offline Unicorn Prince 

  • Registered Members
  • Group: [Ex∂я]
  • Topics: 43
  • Posts: 110
  • Joined: 11-April 10
  • Uploaded 6.29tb
  • Downloaded 107.27gb
  • Ratio 60.08 ratio
  • Thanked: 491 times

Posted 07 October 2012 - 12:58 PM (#1)

Ek Shriman Ek Shrimati [1969] [DVD9] - [ExDR]


------------------------------------------------------------------------------------
Posted Image
Ek Shriman Ek Shrimati [1969] [DVD9]


>> POSTER <<
Posted Image



>> DVD MENU <<

Posted Image
Posted Image
Posted Image
Posted Image



>> SCREENS <<

Posted Image
Posted Image
Posted Image
Posted Image
Posted Image
Posted Image
Posted Image
Posted Image
Posted Image



>> STORY <<

Quote

Deepali is the only daughter of a wealthy but deceased industrialist, Lakhanpal. While on a holiday in Northern India, she meets with and gets friendly with Pritam. Unknown to her, Pritam has fallen head over heels in love with her, and wants to marry her. After Deepali returns home, Pritam follows her, meets with her maternal uncle, Choudhary, and creates a very good impression of himself. As a result, Choudhary is convinced that Pritam will make a good husband for Deepali. When Deepali finds out, she is enraged, as she has seen Pritam only as a friend, and her true love is another eligible young man by the name of Ajit, who Deepali has decided to make her life-partner, regardless of any and all consequences.



>> TECHNICAL SPECS <<


General
Complete name                    : Ek Shriman Ek Shrimati [1969] [DVD9]/VIDEO_TS/VTS_02_1.VOB
Format                           : MPEG-PS
File size                        : 1 024 MiB
Duration                         : 21mn 47s
Overall bit rate                 : 6 572 Kbps

Video
ID                               : 224 (0xE0)
Format                           : MPEG Video
Format version                   : Version 2
Format profile                   : Main@Main
Format settings, BVOP            : No
Format settings, Matrix          : Default
Format settings, GOP             : M=1, N=16
Duration                         : 21mn 47s
Bit rate mode                    : Variable
Bit rate                         : 5 800 Kbps
Width                            : 704 pixels
Height                           : 480 pixels
Display aspect ratio             : 4:3
Frame rate                       : 29.970 fps
Standard                         : NTSC
Color space                      : YUV
Chroma subsampling               : 4:2:0
Bit depth                        : 8 bits
Scan type                        : Interlaced
Scan order                       : Top Field First
Compression mode                 : Lossy
Bits/(Pixel*Frame)               : 0.573
Stream size                      : 904 MiB (88%)

Audio #2 [5.1Ch HINDI]
ID                               : 189 (0xBD)-129 (0x81)
Format                           : AC-3
Format/Info                      : Audio Coding 3
Mode extension                   : CM (complete main)
Muxing mode                      : DVD-Video
Duration                         : 21mn 46s
Bit rate mode                    : Constant
Bit rate                         : 448 Kbps
Channel(s)                       : 6 channels
Channel positions                : Front: L C R, Side: L R, LFE
Sampling rate                    : 48.0 KHz
Bit depth                        : 16 bits
Compression mode                 : Lossy
Stream size                      : 69.8 MiB (7%)

Audio #1 [2.0Ch Russian]
ID                               : 189 (0xBD)-128 (0x80)
Format                           : AC-3
Format/Info                      : Audio Coding 3
Mode extension                   : CM (complete main)
Muxing mode                      : DVD-Video
Duration                         : 21mn 46s
Bit rate mode                    : Constant
Bit rate                         : 192 Kbps
Channel(s)                       : 2 channels
Channel positions                : Front: L R
Sampling rate                    : 48.0 KHz
Bit depth                        : 16 bits
Compression mode                 : Lossy
Stream size                      : 29.9 MiB (3%)




[ Hindi Audio (6Ch) + Russian Audio (2Ch) ]

{ From Russia With LOVE : veronika86 }


------------------------------------------------------------------------------------

Attached File  Ek Shriman Ek Shrimati 1969 DVD9.torrent Toggle

Filename
Ek Shriman Ek Shrimati [1969] [DVD9]
Filesize
7.3gb
Files
23
Health
Seeders: 0 Leechers: 0 Completed: 11
ratio ---


This post has been edited by Sovereign Prince: 07 October 2012 - 11:12 PM

Posted Image
4


User is offline Pakistani_ Bacha 

  • -=Encoding Father Aka P.B=-
  • Group: [Ex∂я]
  • Others: [EXD MANAGEMENT], [ExDc]
  • Topics: 474
  • Posts: 1,727
  • Joined: 17-August 10
  • Uploaded 61.92tb
  • Downloaded 2.08tb
  • Ratio 29.84 ratio
  • LocationExDR's Servers...
  • Thanked: 5373 times

Posted 07 October 2012 - 01:15 PM (#2)

Superb Sharing Bro..
Keep Rolling


<MARQUEE> -=Feel Free To Pm Me If Any Kind Of Help=-</MARQUEE>


<MARQUEE> -=Sorry! currently we are not enrolling new members.=-</MARQUEE>


Posted Image
0


User is offline MrGenius 

  • -=| I Am Back & You'll Watch |=-
  • Group: [ExD Elite Team]
  • Others: [Team ExD]
  • Topics: 224
  • Posts: 5,486
  • Joined: 28-November 10
  • Uploaded 4.56tb
  • Downloaded 22.2gb
  • Ratio 210.09 ratio
  • LocationIn Your Hearts
  • Thanked: 6058 times

Posted 07 October 2012 - 03:48 PM (#3)

:rolleyes:
0


User is offline KђÎĽΔÐÌ 

  • ExD ka Badshah
  • Group: [ExD Crew]
  • Others: [ExD$r], [ExSeeders], [XiR]
  • Topics: 869
  • Posts: 7,505
  • Joined: 26-April 12
  • Uploaded 17.2tb
  • Downloaded 317.06gb
  • Ratio 55.57 ratio
  • Thanked: 8392 times

Posted 07 October 2012 - 08:50 PM (#4)

Posted Image
Posted Image
Posted Image
0


User is offline Amirphp 

  • Registered Members
  • PipPip
  • Group: Members
  • Topics: 1
  • Posts: 12
  • Joined: 28-December 10
  • Uploaded 150.25gb
  • Downloaded 243.8gb
  • Ratio 0.62 ratio
  • Thanked: 0 times

Posted 09 October 2012 - 02:24 PM (#5)

Its not in hindi audio is nepali.mere 7gb download bekar ho gaya.please upload in hindi.
0


User is offline Unicorn Prince 

  • Registered Members
  • Group: [Ex∂я]
  • Topics: 43
  • Posts: 110
  • Joined: 11-April 10
  • Uploaded 6.29tb
  • Downloaded 107.27gb
  • Ratio 60.08 ratio
  • Thanked: 491 times

Posted 09 October 2012 - 04:46 PM (#6)

View PostAmirphp, on 09 October 2012 - 02:24 PM, said:

Its not in hindi audio is nepali.mere 7gb download bekar ho gaya.please upload in hindi.


Achha...Are YOU Nepali :o
It's A Dual Audio Movie :huh: :
[ Hindi Audio (6Ch) + Russian Audio (2Ch) ]
Default AudioTrack is Russian (2CH).....So,like you play all dual audio movies:
>>Go to Audio Options in your Player and Select Hindi Audio(5Ch)...That's IT !
Posted Image
0


Share this topic:



Old topic!
Guest, the last post of this topic is over {days} days and a new post will now be considered as flood!

Page 1 of 1
  • You cannot start a new topic
  • This topic is locked


Enter your sign in name and password


Sign in options
  Or sign in with these services