ExDesi.com Desi Torrents Links and Streams: Kal Aaj Aur Kal (1971) DvD - 2CD -Rip - Xvid - Esub - 6 channels { ExD XMR } - ExDesi.com Desi Torrents Links and Streams

Jump to content

Page 1 of 1
  • You cannot start a new topic
  • This topic is locked

Old topic!
Guest, the last post of this topic is over 180 days and a new post will now be considered as flood!

Rate Topic: ***** 3 Votes

User is offline punjabi_boy 

  • EXD MGMT
  • Group: [EXD MANAGEMENT]
  • Others: [Team ExD], [XMR]
  • Topics: 885
  • Posts: 5,229
  • Joined: 22-March 08
  • Uploaded 114.41tb
  • Downloaded 1.21tb
  • Ratio 94.18 ratio
  • Thanked: 6750 times

Posted 22 November 2011 - 01:17 PM (#1)

Kal Aaj Aur Kal (1971) DvD - 2CD -Rip - Xvid - Esub - 6 channels { ExD XMR }


XMR Encode
Posted Image



Kal Aaj Aur Kal (1971)



Posted Image



Posted Image


Ripper                           : Rahul
Complete name                    : Kal Aaj Aur Kal (1971)
Format                           : AVI
Format/Info                      : Audio Video Interleave
File size                        : 1.35 GiB
Duration                         : 3h 15mn
Overall bit rate                 : 986 Kbps
Writing application              : VirtualDubMod 1.5.10.3 | 


Video
ID                               : 0
Format                           : MPEG-4 Visual
Format profile                   : Advanced Simple@L5
Format settings, BVOP            : 2
Format settings, QPel            : Yes
Format settings, GMC             : No warppoints
Format settings, Matrix          : Default (MPEG)
Codec ID                         : XVID
Codec ID/Hint                    : XviD
Duration                         : 3h 15mn
Bit rate                         : 861 Kbps
Width                            : 656 pixels
Height                           : 480 pixels
Display aspect ratio             : 4:3
Frame rate                       : 23.976 fps
Color space                      : YUV
Chroma subsampling               : 4:2:0
Bit depth                        : 8 bits
Scan type                        : Progressive
Compression mode                 : Lossy
Bits/(Pixel*Frame)               : 0.114
Stream size                      : 1.18 GiB (87%)
Writing library                  : XviD 1.2.1 (UTC 2008-12-04)

Audio
ID                               : 1
Format                           : AC-3
Format/Info                      : Audio Coding 3
Mode extension                   : CM (complete main)
Codec ID                         : 2000
Duration                         : 2h 58mn
Bit rate mode                    : Constant
Bit rate                         : 128 Kbps
Channel(s)                       : 6 channels
Channel positions                : Front: L C R, Side: L R, LFE
Sampling rate                    : 48.0 KHz
Bit depth                        : 16 bits
Compression mode                 : Lossy
Stream size                      : 163 MiB (12%)
Alignment                        : Split accross interleaves
Interleave, duration             : 46 ms (1.10 video frame)
Interleave, preload duration     : 500 ms



Synopsis


Posted Image


Cast


Posted Image


Posted Image


Posted Image
Posted Image
Posted Image
Posted Image
Posted Image
Posted Image
Posted Image
Posted Image
Posted Image
Posted Image



Hello guest! Please register or sign in to view the links.



Give Proper Credit To Me & Team ExD | XMR | ExS

Posted Image
Posted ImagePunjabi_BoyPosted Image
Posted Image

1GB Seeding Added

Posted Image

Posted Image

Attached File  Kal Aaj Aur Kal (1971) DvD - 2CD -Rip - Xvid - Esub - 6 channels ExD XMR .torrent Toggle

Filename
Kal Aaj Aur Kal (1971) DvD - 2CD -Rip - Xvid - Esub - 6 channels { ExD XMR }
Filesize
1.35gb
Files
3
Health
Seeders: 0 Leechers: 0 Completed: 101
ratio ---


6


User is offline -=ToM=- 

  • !!! Open !!!
  • Group: [EXD MANAGEMENT]
  • Others: [Team ExD], [XMR]
  • Topics: 532
  • Posts: 8,679
  • Joined: 20-November 07
  • Uploaded 19.1tb
  • Downloaded 405.24gb
  • Ratio 48.25 ratio
  • LocationCLASSIFIED
  • Thanked: 3297 times

Posted 22 November 2011 - 02:34 PM (#2)

Quality Share Jaani..

AAne Do..>>

0


User is offline K@rtik 

  • Only For ExDesi
  • Group: [EXD MANAGEMENT]
  • Others: [Team ExD]
  • Topics: 1,758
  • Posts: 5,408
  • Joined: 03-May 11
  • Uploaded 78.19tb
  • Downloaded 346.35gb
  • Ratio 231.19 ratio
  • Thanked: 26901 times

Posted 22 November 2011 - 05:55 PM (#3)

SUper Awesome Pappe
Kya Baat Hai Dear
good Quallity And Job

XMR Rocks

Posted Image
4


User is offline desies 

  • Registered Members
  • Group: Members
  • Topics: 0
  • Posts: 101
  • Joined: 29-October 08
  • Uploaded 300.66gb
  • Downloaded 269.63gb
  • Ratio 1.12 ratio
  • Thanked: 0 times

Posted 23 November 2011 - 11:18 AM (#4)

nice share 22 ji

0


User is offline -=Rangeela=- 

  • -=Rangeela=-
  • Group: [ExD Elite Team]
  • Others: [EXD MANAGEMENT], [ExDG$], [Team ExD], [XMR]
  • Topics: 1,395
  • Posts: 8,921
  • Joined: 20-October 07
  • Uploaded 52.01tb
  • Downloaded 248.21gb
  • Ratio 214.58 ratio
  • Thanked: 7284 times

Posted 23 November 2011 - 10:09 PM (#5)

Rocking share bro! Xcellent work
ExD-XMR
"Inactive from Feb"
0


Share this topic:



Old topic!
Guest, the last post of this topic is over {days} days and a new post will now be considered as flood!

Page 1 of 1
  • You cannot start a new topic
  • This topic is locked


Enter your sign in name and password


Sign in options
  Or sign in with these services