ExDesi.com Desi Torrents Links and Streams: Mungi Udali Aakashi - Sant Dnyaneshwar - Part I, II, III - 1CD - XviD - VCDRip - ExDesi.com Desi Torrents Links and Streams

Jump to content

Page 1 of 1
  • You cannot start a new topic
  • This topic is locked

Old topic!
Guest, the last post of this topic is over 180 days and a new post will now be considered as flood!

Rate Topic: -----

User is offline san.kad23 

  • ExD ka Naujawaan
  • Group: Members
  • Topics: 37
  • Posts: 247
  • Joined: 14-July 10
  • Uploaded 441.55gb
  • Downloaded 600.13gb
  • Ratio 0.74 ratio
  • Thanked: 101 times

Posted 11 November 2011 - 10:53 AM (#1)

Mungi Udali Aakashi - Sant Dnyaneshwar - Part I, II, III - 1CD - XviD - VCDRip


Marathi Devotional Movie
General Complete name            : Mungi Udali Aakashi - Sant Dnyaneshwar - Part I, II, III - 1CD - XviD - VCDRip.mp4
Format                           : MPEG-4
File size                        : 688 MiB
Duration                         : 2h 57mn
Overall bit rate                 : 541 Kbps

Video
Duration                         : 2h 57mn
Bit rate                         : 443 Kbps
Maximum bit rate                 : 2 465 Kbps
Width                            : 480 pixels
Height                           : 360 pixels
Display aspect ratio             : 4:3
Frame rate mode                  : Constant
Frame rate                       : 25.000 fps
Color space                      : YUV
Chroma subsampling               : 4:2:0
Bit depth                        : 8 bits
Scan type                        : Progressive
Bits/(Pixel*Frame)               : 0.103
Stream size                      : 563 MiB (82%)

Audio
Format                           : AAC
Format/Info                      : Advanced Audio Codec
Format version                   : Version 4
Format profile                   : LC
Format settings, SBR             : No
Codec ID                         : 40
Duration                         : 2h 57mn
Bit rate mode                    : Variable
Bit rate                         : 96.0 Kbps
Maximum bit rate                 : 147 Kbps
Channel(s)                       : 2 channels
Channel positions                : Front: L R
Sampling rate                    : 44.1 KHz
Stream size                      : 122 MiB (18%)


Hello guest! Please register or sign in to view the links.

Hello guest! Please register or sign in to view the links.

Hello guest! Please register or sign in to view the links.

Hello guest! Please register or sign in to view the links.

Hello guest! Please register or sign in to view the links.

Hello guest! Please register or sign in to view the links.

Hello guest! Please register or sign in to view the links.

Hello guest! Please register or sign in to view the links.

Hello guest! Please register or sign in to view the links.

Hello guest! Please register or sign in to view the links.

Attached File  Mungi Udali Aakashi - Sant Dnyaneshwar - Part I, II, III - 1CD - XviD - VCDRip.mp4.torrent Toggle

Filename
Mungi Udali Aakashi - Sant Dnyaneshwar - Part I, II, III - 1CD - XviD - VCDRip.mp4
Filesize
688.04mb
Files
1
Health
Seeders: 0 Leechers: 0 Completed: 35
ratio ---


2


User is offline ganeshkom7 

  • Team ExDe$
  • Group: Members
  • Topics: 1
  • Posts: 661
  • Joined: 22-December 10
  • Uploaded 793.43gb
  • Downloaded 416.39gb
  • Ratio 1.91 ratio
  • LocationFar Far Away
  • Thanked: 2 times

Posted 11 November 2011 - 04:31 PM (#2)

thnx for share
Posted Image
0


User is offline atulsawant 

  • Registered Members
  • Group: Members
  • Topics: 16
  • Posts: 102
  • Joined: 20-May 10
  • Uploaded 114.29gb
  • Downloaded 38.09gb
  • Ratio 3.00 ratio
  • Thanked: 108 times

Posted 11 November 2011 - 06:08 PM (#3)

thanks for the share.

Can you please upload Mohan Awate marathi movie which Schedule to show on sunday 13 Nov 2011 on star pravah @ 10 pm
0


User is offline abdesi 

  • Militia
  • Group: Members
  • Topics: 1
  • Posts: 932
  • Joined: 24-July 10
  • Uploaded 482.67gb
  • Downloaded 36.45gb
  • Ratio 13.24 ratio
  • Thanked: 6 times

Posted 12 November 2011 - 03:02 AM (#4)

View Postatulsawant, on 11 November 2011 - 06:08 PM, said:

thanks for the share.

Can you please upload Mohan Awate marathi movie which Schedule to show on sunday 13 Nov 2011 on star pravah @ 10 pm


No requests here dear, and even your ratio is low.
0


User is offline Michael J. Scofield ™ 

  • ♥♥♥ Love You Sophie ♥♥♥
  • Group: [Administrators]
  • Others: [ExDG$]
  • Topics: 382
  • Posts: 32,945
  • Joined: 11-September 07
  • Uploaded 156.3tb
  • Downloaded 11.28tb
  • Ratio 13.85 ratio
  • LocationIn Arms Of Sophie
  • Thanked: 7917 times

Posted 12 November 2011 - 04:40 AM (#5)

Nice Work

Keep It Up

Thx

0


User is offline SaketSaket 

  • Extreme Seeder
  • Group: [ExDe$]
  • Others: Members, [ExSeeders]
  • Topics: 132
  • Posts: 478
  • Joined: 28-March 10
  • Uploaded 12.03tb
  • Downloaded 331.44gb
  • Ratio 37.17 ratio
  • Thanked: 1011 times

Posted 12 November 2011 - 06:52 AM (#6)

Great share...
Credits to Original Sharer/Ripper...
0


Share this topic:



Old topic!
Guest, the last post of this topic is over {days} days and a new post will now be considered as flood!

Page 1 of 1
  • You cannot start a new topic
  • This topic is locked


Enter your sign in name and password


Sign in options
  Or sign in with these services