ExDesi.com Desi Torrents Links and Streams: All Time best Good Quality Dual audio Hollywood movies(Regularly Updating) - ExDesi.com Desi Torrents Links and Streams

Jump to content

  • 17 Pages +
  • 1
  • 2
  • 3
  • Last »
  • You cannot start a new topic
  • This topic is locked

Old topic!
Guest, the last post of this topic is over 180 days and a new post will now be considered as flood!

Rate Topic: -----

User is online Dj Rajiv 

  • -[ExDesi Ka Remix King]=-
  • Group: [EXD MILITIA]
  • Others: [ExD$r], [ExSeeders]
  • Topics: 1,764
  • Posts: 3,238
  • Joined: 02-October 08
  • Uploaded 87.78tb
  • Downloaded 648.7gb
  • Ratio 138.57 ratio
  • Thanked: 9928 times

Posted 06 May 2011 - 10:36 AM (#1)

All Time best Good Quality Dual audio Hollywood movies(Regularly Updating)




300 2006 720p BRrip(6ch-Dts-Ac3)[Dual-Audio][English-Hindi]~BONIIN


Posted Image

Posted Image

Posted Image


Posted Image
Release Rambo 300 2006 720p BRrip(6ch-Dts-Ac3)[Dual-Audio][English-Hindi]~BONIIN

Release Date: 16 March 2007 (India)

Release Length: 1h 56mn

Tagline: Spartans, tonight, we dine in hell!

Storyline:In the Battle of Thermopylae of 480 BC an alliance of Greek city-states fought the invading
Persian army in the mountain pass of Thermopylae. Vastly outnumbered, the Greeks held back the enemy in
one of the most famous last stands of history. Persian King Xerxes lead a Army of well over 100,000
(Persian king Xerxes before war has about 170,000 army) men to Greece and was confronted by 300 Spartans,
700 Thespians and other Slave soldiers. Xerxes waited for 10 days for King Leonidas to surrender or withdraw
left with no options he moved. The battle lasted for about 3 days and after which all 300 Spartans were killed.
The Spartan defeat was not the one expected, as a local shepherd, named Ephialtes, defected to the Persians and
informed Xerxes of a separate path through Thermopylae, which the Persians could use to outflank the Greeks.



Posted Image
Gerard Butler ... King Leonidas
Lena Headey ... Queen Gorgo
Dominic West ... Theron
David Wenham ... Dilios
Vincent Regan ... Captain
Michael Fassbender ... Stelios
Tom Wisdom ... Astinos
Andrew Pleavin ... Daxos
Andrew Tiernan ... Ephialtes
Rodrigo Santoro ... Xerxes
Tyler Neitzel ... Leonidas at 15 yrs
Stephen McHattie ... Loyalist
Greg Kramer ... Ephor #1
Alex Ivanovici ... Ephor #2
Kelly Craig ... Oracle Girl


Posted Image
Title..............................: 300 2006 720p BRrip(6ch-Dts-Ac3)[Dual-Audio][English-Hindi]~BONIIN
Genre..............................: Action | Fantasy | History | War
Idbm Link..........................:
http://www.imdb.com/title/tt0416449/

User Rating........................: 7.8/10 (247,485 votes) 1,969 reviews
Year...............................: 16 March 2007 (India)
Directer...........................: Zack Snyder
writer.............................: Zack Snyder, Kurt Johnstad
Languages..........................: English,Hindi
Subtitles Ext......................: English
Duration...........................: 1h 56mn
Container..........................: Mkv
Encoded/Profile/Level..............: 2 pass/High/Level 4.1
Type/Writing Library...............: MPEG-4 AVC/x264
Resolution.........................: 1280x544 pixels
Aspect Ratio/Frame Rate............: 2.35:1/23.976 fps
Bits/(Pixel*Frame).................: 0.124
Nominal bitrate....................: 2 135 Kbps
Overall bitrate....................: 3 528 Kbps
English Audio/Bit Rate.............: AC3 640 Kbps
Hindi Audio/Bit Rate...............: DTS 768 kbps
English Channel(s)/Sampling Rate...: 6 channels/48.0 KHz
Hindi Channel(s)/Sampling Rate.....: 6 channels/48.0 KHz
English Channel Position...........: Front: L C R, Rear: L R, LFE
Hindi Channel Position.............: Front: L C R, Rear: L R, LFE
Stream Video Size..................: 1.68 GB (58%)
Stream Audio Size..................: English~534 MiB (18%)
Stream Audio Size..................: Hindi~630 MiB (21%)
File Size..........................: 2.87 GB
Source.............................: Bluray 1080p AVC DTS-HD MA 5 1-CHDBits
Team...............................: HD Desi Rocker Releases
Encoded/Released By................: BONIIN



Posted Image
Posted Image
Posted Image
Posted Image
Posted Image
Posted Image
Posted Image
Posted Image



Posted Image
~*Short Links*~
Hello guest! Please register or sign in to view the links.

Hello guest! Please register or sign in to view the links.

Hello guest! Please register or sign in to view the links.



Posted Image

This post has been edited by djrajiv2009: 06 May 2011 - 10:36 AM


Posted Image

Posted Image
2


Thanked by 4 Members:

User is online Dj Rajiv 

  • -[ExDesi Ka Remix King]=-
  • Group: [EXD MILITIA]
  • Others: [ExD$r], [ExSeeders]
  • Topics: 1,764
  • Posts: 3,238
  • Joined: 02-October 08
  • Uploaded 87.78tb
  • Downloaded 648.7gb
  • Ratio 138.57 ratio
  • Thanked: 9928 times

Posted 06 May 2011 - 10:39 AM (#2)



Scary Movie Quadrilogy Unrated BluRay 720pDual AudioEng Hindi



Scary Movie 2000

Posted Image

Posted Image

General
Complete name : Scary Movie 2000 BluRay 720p[Dual Audio][Eng Hindi]Current_HD
Format : Matroska
File size : 1.49 GiB
Duration : 1h 28mn
Overall bit rate : 2 417 Kbps
Encoded date : UTC 2011-04-25 05:56:48
Writing application : mkvmerge v4.6.0 on Mar 10 2011 02:50:32
Writing library : libebml v1.2.0


Posted Image

Video
ID : 1
Format : AVC
Format/Info : Advanced Video Codec
Format profile : High@L4.1
Format settings, CABAC : Yes
Format settings, ReFrames : 3 frames
Muxing mode : Header stripping
Codec ID : V_MPEG4/ISO/AVC
Duration : 1h 28mn
Nominal bit rate : 2 105 Kbps
Width : 1 280 pixels
Height : 540 pixels
Display aspect ratio : 2.35:1
Frame rate : 23.976 fps
Color space : YUV
Chroma subsampling : 4:2:0
Bit depth : 8 bits
Scan type : Progressive
Bits/(Pixel*Frame) : 0.127
Title : CurrentHD
Writing library : x264 core 67 r1127M 8d82fec
Language : English


Posted Image

Audio #1
ID : 2
Format : AAC
Format/Info : Advanced Audio Codec
Format profile : HE-AAC / LC
Codec ID : A_AAC
Duration : 1h 28mn
Channel(s) : 6 channels
Channel positions : Front: L C R, Side: L R, LFE
Sampling rate : 48.0 KHz / 24.0 KHz
Compression mode : Lossy
Title : CurrentHD
Language : English


Posted Image

Audio #2
ID : 3
Format : MPEG Audio
Format version : Version 1
Format profile : Layer 3
Mode : Joint stereo
Mode extension : MS Stereo
Muxing mode : Header stripping
Codec ID : A_MPEG/L3
Codec ID/Hint : MP3
Duration : 1h 28mn
Bit rate mode : Constant
Bit rate : 128 Kbps
Channel(s) : 2 channels
Sampling rate : 44.1 KHz
Compression mode : Lossy
Stream size : 80.8 MiB (5%)
Title : CurrentHD
Writing library : LAME3.98.2
Language : Hindi

Hello guest! Please register or sign in to view the links.

Hello guest! Please register or sign in to view the links.

Hello guest! Please register or sign in to view the links.

Hello guest! Please register or sign in to view the links.



Scary Movie 2

Posted Image

Posted Image
Complete name : Scary Movie 2 2001 BluRay 720p[Dual Audio][Eng Hindi]Current_HD
Format : Matroska
File size : 1.44 GiB
Duration : 1h 22mn
Overall bit rate : 2 504 Kbps
Encoded date : UTC 2002-01-05 00:01:36
Writing application : mkvmerge v4.6.0
Writing library : libebml v1.2.0

Posted Image

Video
ID : 1
Format : AVC
Format/Info : Advanced Video Codec
Format profile : High@L4.1
Format settings, CABAC : Yes
Format settings, ReFrames : 8 frames
Muxing mode : Header stripping
Codec ID : V_MPEG4/ISO/AVC
Duration : 1h 22mn
Nominal bit rate : 2 247 Kbps
Width : 1 280 pixels
Height : 720 pixels
Display aspect ratio : 16:9
Frame rate : 24.000 fps
Color space : YUV
Chroma subsampling : 4:2:0
Bit depth : 8 bits
Scan type : Progressive
Bits/(Pixel*Frame) : 0.102
Title : CurrentHD
Language : English


Posted Image

Audio #1
ID : 2
Format : AAC
Format/Info : Advanced Audio Codec
Format profile : LC
Codec ID : A_AAC
Duration : 1h 22mn
Channel(s) : 2 channels
Channel positions : Front: L R
Sampling rate : 48.0 KHz
Compression mode : Lossy
Title : CurrentHD
Language : English


Posted Image

Audio #2
ID : 3
Format : AAC
Format/Info : Advanced Audio Codec
Format profile : LC
Codec ID : A_AAC
Duration : 1h 22mn
Channel(s) : 2 channels
Channel positions : Front: L R
Sampling rate : 44.1 KHz
Compression mode : Lossy
Title : CurrentHD
Language : Hindi



Hello guest! Please register or sign in to view the links.

Hello guest! Please register or sign in to view the links.

Hello guest! Please register or sign in to view the links.

Hello guest! Please register or sign in to view the links.




Scary Movie 3


Posted Image

Posted Image
Complete name : Scary Movie 3 2003 HDTVRip 720p[Dual Audio][Eng Hindi]Current_HD
Format : Matroska
File size : 1.41 GiB
Duration : 1h 13mn
Overall bit rate : 2 743 Kbps
Movie name : Red Heat
Encoded date : UTC 2002-01-03 22:19:14
Writing application : mkvmerge v4.6.0
Writing library : libebml v1.2.0


Posted Image

Video
ID : 1
Format : AVC
Format/Info : Advanced Video Codec
Format profile : High@L4.1
Format settings, CABAC : Yes
Format settings, ReFrames : 8 frames
Muxing mode : Header stripping
Codec ID : V_MPEG4/ISO/AVC
Duration : 1h 13mn
Nominal bit rate : 2 485 Kbps
Width : 1 280 pixels
Height : 720 pixels
Display aspect ratio : 16:9
Frame rate : 25.000 fps
Color space : YUV
Chroma subsampling : 4:2:0
Bit depth : 8 bits
Scan type : Progressive
Bits/(Pixel*Frame) : 0.108
Title : CurrentHD
Writing library : x264 core 80 r1376 3feaec2
Language : English


Posted Image

Audio #1
ID : 2
Format : AAC
Format/Info : Advanced Audio Codec
Format profile : LC
Codec ID : A_AAC
Duration : 1h 13mn
Channel(s) : 2 channels
Channel positions : Front: L R
Sampling rate : 48.0 KHz
Compression mode : Lossy
Title : CurrentHD
Language : English


Posted Image

Audio #2
ID : 3
Format : AAC
Format/Info : Advanced Audio Codec
Format profile : LC
Codec ID : A_AAC
Duration : 1h 13mn
Channel(s) : 2 channels
Channel positions : Front: L R
Sampling rate : 44.1 KHz
Compression mode : Lossy
Title : CurrentHD
Language : Hindi


Hello guest! Please register or sign in to view the links.

Hello guest! Please register or sign in to view the links.

Hello guest! Please register or sign in to view the links.

Hello guest! Please register or sign in to view the links.



Scary Movie 4


Posted Image

Posted Image

Complete name : Scary Movie 4 2006 Unrated BluRay 720p[Dual Audio][Eng Hindi]Current_HD
Format : Matroska
File size : 1.42 GiB
Duration : 1h 29mn
Overall bit rate : 2 266 Kbps
Encoded date : UTC 2002-01-02 08:43:20
Writing application : mkvmerge v4.6.0
Writing library : libebml v1.2.0


Posted Image

Video
ID : 1
Format : AVC
Format/Info : Advanced Video Codec
Format profile : High@L4.1
Format settings, CABAC : Yes
Format settings, ReFrames : 8 frames
Muxing mode : Header stripping
Codec ID : V_MPEG4/ISO/AVC
Duration : 1h 29mn
Nominal bit rate : 2 012 Kbps
Width : 1 280 pixels
Height : 688 pixels
Display aspect ratio : 1.860
Frame rate : 23.976 fps
Color space : YUV
Chroma subsampling : 4:2:0
Bit depth : 8 bits
Scan type : Progressive
Bits/(Pixel*Frame) : 0.095
Title : CurrentHD
Writing library : x264 core 80 r1376 3feaec2
Language : English


Posted Image

Audio #1
ID : 2
Format : AAC
Format/Info : Advanced Audio Codec
Format profile : LC
Codec ID : A_AAC
Duration : 1h 29mn
Channel(s) : 2 channels
Channel positions : Front: L R
Sampling rate : 44.1 KHz
Compression mode : Lossy
Title : CurrentHD
Language : Hindi


Posted Image

Audio #2
ID : 3
Format : AAC
Format/Info : Advanced Audio Codec
Format profile : LC
Codec ID : A_AAC
Duration : 1h 29mn
Channel(s) : 2 channels
Channel positions : Front: L R
Sampling rate : 48.0 KHz
Compression mode : Lossy
Title : CurrentHD
Language : English



Hello guest! Please register or sign in to view the links.

Hello guest! Please register or sign in to view the links.

Hello guest! Please register or sign in to view the links.


Posted Image

Posted Image
0


User is offline adijawed 

  • Ex∂я
  • Group: [Ex∂я]
  • Topics: 264
  • Posts: 860
  • Joined: 14-June 10
  • Uploaded 15.54tb
  • Downloaded 719.39gb
  • Ratio 22.11 ratio
  • LocationExd3i
  • Thanked: 2002 times

Posted 06 May 2011 - 10:39 AM (#3)

Awsome Share Buddy
Posted Image
0


User is online Dj Rajiv 

  • -[ExDesi Ka Remix King]=-
  • Group: [EXD MILITIA]
  • Others: [ExD$r], [ExSeeders]
  • Topics: 1,764
  • Posts: 3,238
  • Joined: 02-October 08
  • Uploaded 87.78tb
  • Downloaded 648.7gb
  • Ratio 138.57 ratio
  • Thanked: 9928 times

Posted 06 May 2011 - 10:40 AM (#4)



Aladdin 1992 1080p HDTVRIP [Dual-Audio][Eng-Hindi]~Alan~BONIIN

Posted Image

Posted Image

Release Title: Aladdin 1992

Release Date: 25th November 1992 (USA)

Film Length: 1:30:25

Tagline: Imagine if you had three wishes, three hopes, three dreams and they all could come true.

Storyline: Aladdin is a street-urchin who lives in a large and busy town long ago with his faithful monkey friend Abu. When Princess Jasmine gets tired of being forced to remain in the palace that overlooks the city, she sneaks out to the marketplace, where she accidentally meets Aladdin. Under the orders of the evil Jafar (the sultan's advisor), Aladdin is thrown in jail and becomes caught up in Jafar's plot to rule the land with the aid of a mysterious lamp. Legend has it that only a person who is a "diamond in the rough" can retrieve the lamp from the Cave of Wonders. Aladdin might fight that description, but that's not enough to marry the princess, who must (by law) marry a prince.


Posted Image
Scott Weinger ... Aladdin (voice)
Robin Williams ... Genie (voice)
Linda Larkin ... Jasmine (voice)
Jonathan Freeman ... Jafar (voice)
Frank Welker ... Abu / Rajah (voice)
Gilbert Gottfried ... Iago (voice)
Douglas Seale ... Sultan (voice)
Charles Adler ... Additional Voices (voice) (as Charlie Adler)
Jack Angel ... Additional Voices (voice)
Corey Burton ... Additional Voices (voice)
Philip L. Clarke ... Additional Voices (voice) (as Philip Clarke)
Jim Cummings ... Razoul / Farouk / Omar (voice)
Jennifer Darling ... Additional Voices (voice)
Debi Derryberry ... Additional Voices (voice)
Bruce Gooch ... Additional Voices (voice)


Posted Image
Genre: Animation | Adventure | Family
Format: Matroska
File Size: 2.12 GiB
Duration: 1h 30mn
Movie name: Aladdin 1992 1080p HDTV Dual Audio [Eng-Hindi]~Alan (HDDR Release)
Language: English and Hindi
Ripper: Alan


Posted Image
Video
ID : 1
Format : AVC
Format/Info : Advanced Video Codec
Format profile : High@L4.1
Format settings, CABAC : Yes
Format settings, ReFrames : 4 frames
Muxing mode : Header stripping
Codec ID : V_MPEG4/ISO/AVC
Duration : 1h 30mn
Bit rate : 2 782 Kbps
Width : 1 920 pixels
Height : 1 080 pixels
Display aspect ratio : 16:9
Frame rate : 23.976 fps
Color space : YUV
Chroma subsampling : 4:2:0
Bit depth : 8 bits
Scan type : Progressive
Bits/(Pixel*Frame) : 0.056
Stream size : 1.71 GiB (81%)
Title : Alan
Writing library : x264 core 114 r1924 08d04a4


Posted Image
Audio #1
ID : 2
Format : AC-3
Format/Info : Audio Coding 3
Mode extension : CM (complete main)
Muxing mode : Header stripping
Codec ID : A_AC3
Duration : 1h 30mn
Bit rate mode : Constant
Bit rate : 384 Kbps
Channel(s) : 6 channels
Channel positions : Front: L C R, Side: L R, LFE
Sampling rate : 48.0 KHz
Bit depth : 16 bits
Compression mode : Lossy
Stream size : 248 MiB (11%)
Title : Track 1
Language : English


Posted Image
Audio #2
ID : 3
Format : AC-3
Format/Info : Audio Coding 3
Mode extension : CM (complete main)
Muxing mode : Header stripping
Codec ID : A_AC3
Duration : 1h 30mn
Bit rate mode : Constant
Bit rate : 192 Kbps
Channel(s) : 2 channels
Channel positions : Front: L R
Sampling rate : 48.0 KHz
Bit depth : 16 bits
Compression mode : Lossy
Delay relative to video : 14ms
Stream size : 124 MiB (6%)
Title : Alan
Language : Hindi


Posted Image
Posted Image
Posted Image
Posted Image
Posted Image
Posted Image
Posted Image
Posted Image


[IMG]http://img27.imageshack.us/img27/8235/banner190x60.jpg
Hello guest! Please register or sign in to view the links.

Hello guest! Please register or sign in to view the links.

Hello guest! Please register or sign in to view the links.


[IMG]http://img408.imageshack.us/img408/4206/slqp2p1.gif[/IMG]


Posted Image

Posted Image
1


User is online Dj Rajiv 

  • -[ExDesi Ka Remix King]=-
  • Group: [EXD MILITIA]
  • Others: [ExD$r], [ExSeeders]
  • Topics: 1,764
  • Posts: 3,238
  • Joined: 02-October 08
  • Uploaded 87.78tb
  • Downloaded 648.7gb
  • Ratio 138.57 ratio
  • Thanked: 9928 times

Posted 06 May 2011 - 10:42 AM (#5)



Thor.2011.Hindi.TSRip.x264.450mb

Posted Image

Posted Image

General
Complete name : Thor.2011.Hindi.TSRip.x264.400mb-CRYME.0007-TeamTNT.mkv
Format : Matroska
File size : 383 MiB
Duration : 1h 49mn
Overall bit rate : 487 Kbps
Encoded date : UTC 2011-05-02 07:24:12
Writing application : mkvmerge v4.7.0 ('Just Like You Imagined') built on Apr 21 2011 01:13:14
Writing library : libebml v1.2.0 + libmatroska v1.1.0


Posted Image

ID : 1
Format : AVC
Format/Info : Advanced Video Codec
Format profile : Main@L2.1
Format settings, CABAC : Yes
Format settings, ReFrames : 4 frames
Format settings, GOP : M=3, N=9
Muxing mode : Header stripping
Codec ID : V_MPEG4/ISO/AVC
Duration : 1h 49mn
Bit rate : 409 Kbps
Width : 704 pixels
Height : 288 pixels
Display aspect ratio : 2.40:1
Frame rate mode : Variable
Frame rate : 25.000 fps
Color space : YUV
Chroma subsampling : 4:2:0
Bit depth : 8 bits
Scan type : Progressive
Bits/(Pixel*Frame) : 0.081
Stream size : 315 MiB (82%)
Writing library : x264 core 112
Color primaries : BT.601-6 525, BT.1358 525, BT.1700 NTSC, SMPTE 170M
Transfer characteristics : BT.709-5, BT.1361
Matrix coefficients : BT.601-6 525, BT.1358 525, BT.1700 NTSC, SMPTE 170M


Posted Image

Audio
ID : 2
Format : MPEG Audio
Format version : Version 1
Format profile : Layer 3
Mode : Joint stereo
Mode extension : MS Stereo
Muxing mode : Header stripping
Codec ID : A_MPEG/L3
Codec ID/Hint : MP3
Duration : 1h 49mn
Bit rate mode : Variable
Bit rate : 76.3 Kbps
Minimum bit rate : 32.0 Kbps
Channel(s) : 2 channels
Sampling rate : 32.0 KHz
Compression mode : Lossy
Stream size : 60.0 MiB (16%)
Title : Hindi [CRYME.0007]
Writing library : LAME3.98r
Encoding settings : -m j -V 7 -q 0 -lowpass 14.5 --vbr-new -b 32
Language : Hindi


Posted Image
Posted Image
Posted Image
Posted Image
Posted Image
Posted Image
Posted Image



Posted Image

~*Single Links*~
Hello guest! Please register or sign in to view the links.


Posted Image


Scream 4 2011 Ts Rip.x264 eng-hindi dual audio


Posted Image


Directed By: Wes Craven
Tagline: Sidney Prescott, now the author of a self-help book, returns home to Woodsboro on the
last stop of her book tour. There she reconnects with Sheriff Dewey and Gale, who are
now married, as well as her cousin Jill and her Aunt Kate. Unfortunately, Sidney's
appearance also brings about the return of Ghostface, putting Sidney, Gale, and Dewey,
along with Jill, her friends, and the whole town of Woodsboro in danger.


Cast:
Lucy Hale ... Sherrie
Roger Jackson ... The Voice (voice)
Shenae Grimes ... Trudie
Dane Farwell ... Ghostface
Anna Paquin ... Rachel
Kristen Bell ... Chloe
Aimee Teegarden ... Jenny Randall
Brittany Robertson ... Marnie Cooper
Neve Campbell ... Sidney Prescott
Alison Brie ... Rebecca Walters
David Arquette ... Dewey Riley
Courteney Cox ... Gale Weathers-Riley
Hayden Panettiere ... Kirby Reed
Emma Roberts ... Jill Roberts
Marielle Jaffe ... Olivia Morris

Genre: Horror | Mystery | Thriller
Language: English & Hindi
Subtitles: Non
Total Size: 466 MB
Duration: 111 min


Video Specs
Container and Codec: mkv. | H.264/MPEG-4 AVC
Frontend And Writing Library:meGUI | x264 core 98 r1649 c54c47d
Bitrate: 1675 Kbps
Maximum Bitrate: 6814 kbps
Encoding: 2 Pass
Resolution: 720 x 296
Display Aspect Ratio: 2.35:1
Quality Factor (QF): 0.304
Frame Rate: 23.976 Fps


Audio Specs
Audio Codec And Type: Advanced Audio Codec (AAC) | MPEG-4 (mp4a)
Writing Application: Nero AAC codec | 1.5.1.0
Bitrate Mode: Variable
Bitrate: 128 Kbps
Maximum Bitrate: 135 Kbps
Sample Rate: 44.100 KHz
Channel Count: 2 channels

IMDB
http://www.imdb.com/title/tt1262416/

IMDb Rating: 7.5/10 (9,192 votes)


Posted Image
Posted Image
Posted Image
Posted Image
Posted Image


Posted Image

~*Single Links*~
Hello guest! Please register or sign in to view the links.


Posted Image




Source Code | 2011 | Hindi | 400MB | TS Rip |

Posted Image

Posted Image
General
Complete name : Source.Code.2011.Hind.TSRip.x264.350mb-CRYME.0007-TeamTNT.mkv
Format : Matroska
File size : 331 MiB
Duration : 1h 26mn
Overall bit rate : 537 Kbps
Encoded date : UTC 2011-05-02 07:22:21
Writing application : mkvmerge v4.7.0 ('Just Like You Imagined') built on Apr 21 2011 01:13:14
Writing library : libebml v1.2.0 + libmatroska v1.1.0


Posted Image
Video
ID : 1
Format : MPEG-4 Visual
Format profile : Advanced Simple@L5
Format settings, BVOP : Yes
Format settings, QPel : No
Format settings, GMC : No warppoints
Format settings, Matrix : Default (H.263)
Codec ID : V_MPEG4/ISO/ASP
Codec ID/Info : Advanced Simple Profile
Duration : 1h 26mn
Bit rate : 460 Kbps
Width : 720 pixels
Height : 400 pixels
Display aspect ratio : 16:9
Frame rate : 25.000 fps
Color space : YUV
Chroma subsampling : 4:2:0
Bit depth : 8 bits
Scan type : Progressive
Compression mode : Lossy
Bits/(Pixel*Frame) : 0.064
Stream size : 283 MiB (86%)
Writing library : XviD 1.2.1 (UTC 2008-12-04)


Posted Image
Audio
ID : 2
Format : MPEG Audio
Format version : Version 1
Format profile : Layer 3
Mode : Joint stereo
Mode extension : MS Stereo
Muxing mode : Header stripping
Codec ID : A_MPEG/L3
Codec ID/Hint : MP3
Duration : 1h 26mn
Bit rate mode : Variable
Bit rate : 66.8 Kbps
Minimum bit rate : 32.0 Kbps
Channel(s) : 2 channels
Sampling rate : 32.0 KHz
Compression mode : Lossy
Stream size : 41.2 MiB (12%)
Title : Hindi [CRYME.0007]
Writing library : LAME3.98r
Encoding settings : -m j -V 7 -q 0 -lowpass 14.5 --vbr-new -b 32
Language :
Hindi

Posted Image
Posted Image
Posted Image
Posted Image
Posted Image
Posted Image
Posted Image


Posted Image

~*Single Links*~
Hello guest! Please register or sign in to view the links.


Posted Image

This post has been edited by djrajiv2009: 06 May 2011 - 10:43 AM


Posted Image

Posted Image
0


User is online Dj Rajiv 

  • -[ExDesi Ka Remix King]=-
  • Group: [EXD MILITIA]
  • Others: [ExD$r], [ExSeeders]
  • Topics: 1,764
  • Posts: 3,238
  • Joined: 02-October 08
  • Uploaded 87.78tb
  • Downloaded 648.7gb
  • Ratio 138.57 ratio
  • Thanked: 9928 times

Posted 06 May 2011 - 10:45 AM (#6)



The Long Kiss Goodnight (1996)BRRip Dual AudioEng Hindi

Posted Image

General
Complete name : The Long Kiss Goodnight (1996)BRRip [Dual Audio][Eng Hindi]Current_HD
Format : Matroska
File size : 760 MiB
Duration : 1h 55mn
Overall bit rate : 923 Kbps
Encoded date : UTC 2002-01-05 17:36:03
Writing application : mkvmerge v4.6.0
Writing library : libebml v1.2.0 + libmatroska v1.1.0

Video
ID : 1
Format : AVC
Format/Info : Advanced Video Codec
Format profile : High@L3.1
Format settings, CABAC : Yes
Format settings, ReFrames : 4 frames
Muxing mode : Header stripping
Codec ID : V_MPEG4/ISO/AVC
Duration : 1h 55mn
Nominal bit rate : 760 Kbps
Width : 1 024 pixels
Height : 416 pixels
Display aspect ratio : 2.40:1
Original display aspect ratio : 2.40:1
Frame rate : 23.976 fps
Color space : YUV
Chroma subsampling : 4:2:0
Bit depth : 8 bits
Scan type : Progressive
Bits/(Pixel*Frame) : 0.074
Title : CurrentHD
Writing library : x264 core 114 r1913 5fd3dce
Language : English

Audio #1
ID : 2
Format : AAC
Format/Info : Advanced Audio Codec
Format profile : HE-AAC / LC
Codec ID : A_AAC
Duration : 1h 55mn
Channel(s) : 2 channels
Channel positions : Front: L R
Sampling rate : 48.0 KHz / 24.0 KHz
Compression mode : Lossy
Title : CurrentHD
Language : English

Audio #2
ID : 3
Format : AAC
Format/Info : Advanced Audio Codec
Format profile : LC
Codec ID : A_AAC
Duration : 1h 55mn
Channel(s) : 2 channels
Channel positions : Front: L R
Sampling rate : 44.1 KHz
Compression mode : Lossy
Title : CurrentHD
Language : Hindi


Posted Image
Posted Image
Posted Image
Posted Image
Posted Image
Posted Image
Posted Image



Posted Image
Hello guest! Please register or sign in to view the links.


Posted Image




Transformers - Revenge Of The Fallen 2009 Hindi BRRip x264 700MB


Posted Image


Posted Image
Posted Image
Posted Image
Posted Image
Posted Image




Posted Image

~*Single Links*~

Hello guest! Please register or sign in to view the links.



~*Short Links*~

Hello guest! Please register or sign in to view the links.

Hello guest! Please register or sign in to view the links.

Hello guest! Please register or sign in to view the links.

Hello guest! Please register or sign in to view the links.



Posted Image


[/CENTER]

This post has been edited by djrajiv2009: 06 May 2011 - 10:46 AM


Posted Image

Posted Image
0


User is online Dj Rajiv 

  • -[ExDesi Ka Remix King]=-
  • Group: [EXD MILITIA]
  • Others: [ExD$r], [ExSeeders]
  • Topics: 1,764
  • Posts: 3,238
  • Joined: 02-October 08
  • Uploaded 87.78tb
  • Downloaded 648.7gb
  • Ratio 138.57 ratio
  • Thanked: 9928 times

Posted 06 May 2011 - 10:49 AM (#7)



Behind Enemy Lines 2001 BRRip 720p Dual Audio(Hin-Eng)

Posted Image

General
Complete name                    : F:\EXDESI.COM\Behind Enemy Lines 2001 BRRip 720p by imkhan -=[TDT]=-\Behind Enemy Lines 2001 BRRip 720p by imkhan -=[TDT]=-.mkv
Format                           : Matroska
File size                        : 767 MiB
Duration                         : 1h 36mn[end credit cut]
Overall bit rate                 : 1 116 Kbps
Movie name                       : Behind Enemy Lines 2001 BRRip 720p by imkhan -=[TDT]=-
Encoded date                     : UTC 2011-04-27 14:31:37
Writing application              : mkvmerge v4.7.0 ('Just Like You Imagined') built on Apr 21 2011 01:13:14
Writing library                  : libebml v1.2.0 + libmatroska v1.1.0

Video
ID                               : 1
Format                           : AVC
Format/Info                      : Advanced Video Codec
Format profile                   : 
Hello guest! Please register or sign in to view the links.
Format settings, CABAC : Yes Format settings, ReFrames : 4 frames Muxing mode : Container
Hello guest! Please register or sign in to view the links.
Codec ID : V_MPEG4/ISO/AVC Duration : 1h 36mn Bit rate : 900 Kbps Width : 1 280 pixels Height : 544 pixels Display aspect ratio : 2.35:1 Frame rate mode : Variable Frame rate : 25.000 fps Resolution : 24 bits Colorimetry : 4:2:0 Scan type : Progressive Bits/(Pixel*Frame) : 0.052 Stream size : 620 MiB (81%) Title : imkhan Writing library : x264 core 112 Encoding settings : cabac=1 / ref=2 / deblock=1:0:0 / analyse=0x1:0x111 / me=hex / subme=6 / psy=1 / psy_rd=1.00:0.00 / mixed_ref=0 / me_range=16 / chroma_me=1 / trellis=0 / 8x8dct=0 / cqm=0 / deadzone=21,11 / fast_pskip=1 / chroma_qp_offset=-2 / threads=6 / sliced_threads=0 / nr=0 / decimate=1 / interlaced=0 / constrained_intra=0 / bframes=2 / b_pyramid=2 / b_adapt=1 / b_bias=0 / direct=1 / weightb=0 / open_gop=0 / weightp=2 / keyint=250 / keyint_min=24 / scenecut=40 / intra_refresh=0 / rc_lookahead=40 / rc=2pass / mbtree=1 / bitrate=900 / ratetol=1.0 / qcomp=0.60 / qpmin=3 / qpmax=51 / qpstep=4 / cplxblur=20.0 / qblur=0.5 / ip_ratio=1.40 / aq=1:1.00 Language : Hindi Audio ID : 2 Format : AC-3 Format/Info : Audio Coding 3 Codec ID : A_AC3 Duration : 1h 36mn Bit rate mode : Constant Bit rate : 192 Kbps Channel(s) : 2 channels Channel positions : L R Sampling rate : 44.1 KHz Video delay : 821ms Stream size : 132 MiB (17%) Title : imkhan Language : Hindi


Posted Image
Posted Image
Posted Image
Posted Image
Posted Image
Posted Image
Posted Image
Posted Image


Posted Image

~*Single Links*~
Hello guest! Please register or sign in to view the links.


Posted Image



Skyline (2010) 480P.BRRIP.6CH.Proper Audio Sync(5.1).Dual Audio(Hin-Eng)

Posted Image

Format : MPEG-4
Format profile : Base Media / Version 2
Codec ID : mp42
File size : 664 MiB
Duration : 1h 32mn
Overall bit rate : 1 002 Kbps

Video
ID : 1
Format : AVC
Format/Info : Advanced Video Codec
Format profile : Main@L3.0
Format settings, CABAC : Yes
Format settings, ReFrames : 4 frames
Codec ID : avc1
Codec ID/Info : Advanced Video Coding
Duration : 1h 32mn
Bit rate mode : Variable
Bit rate : 611 Kbps
Width : 720 pixels
Height : 358 pixels
Display aspect ratio : 2.35:1
Original display aspect ratio : 2.35:1
Frame rate mode : Variable
Frame rate : 29.970 fps
Minimum frame rate : 29.970 fps
Maximum frame rate : 39.063 fps
Color space : YUV
Chroma subsampling : 4:2:0

Audio #1
ID : 2
Format : AAC
Format/Info : Advanced Audio Codec
Format version : Version 4
Format profile : LC
Codec ID : 40
Duration : 1h 32mn
Bit rate mode : Variable
Bit rate : 192 Kbps
Maximum bit rate : 297 Kbps
Channel(s) : 6 channels
Channel positions : Front: L C R, Side: L R, LFE
Sampling rate : 48.0 KHz
Stream size : 128 MiB (19%)
Language : English

Audio #2
ID : 3
Format : AAC
Format/Info : Advanced Audio Codec
Format version : Version 4
Format profile : LC
Codec ID : 40
Duration : 1h 32mn
Bit rate mode : Variable
Bit rate : 192 Kbps
Maximum bit rate : 304 Kbps
Channel(s) : 6 channels
Channel positions : Front: L C R, Side: L R, LFE
Sampling rate : 48.0 KHz
Stream size : 128 MiB (19%)
Language : Hindi

Text
ID : 4
Format : VobSub
Codec ID : subp
Codec ID/Info : The same subtitle format used on DVDs
Duration : 1h 26mn
Bit rate mode : Variable
Bit rate : 2 002 bps
Stream size : 1.24 MiB (0%)
Language : English


SCREENSHOTS::

Posted Image
Posted Image
Posted Image

Thanks MySilu For Blueray Video.

Hindi Audio Properly Sync with 5.1 Audio.

Audio taken From original Reliance DVD.

Next Coming SKYLINE MULTI ORIGINAL 5.1 AUDIO (ENG-TAM-HIN) - 720P


Posted Image

~*Single Links*~
Hello guest! Please register or sign in to view the links.


Posted Image





Million Dollar Baby [2004] BlurayRip 720p Dual audio Eng-Hindi SDR-Release

Posted Image



Posted Image
Posted Image


Posted Image
Posted Image
Posted Image
Posted Image
Posted Image
Posted Image
Posted Image
Posted Image
Posted Image
Posted Image
Posted Image


Posted Image
~*Single Links*~
Hello guest! Please register or sign in to view the links.


Posted Image


Posted Image

Posted Image
0


User is online Dj Rajiv 

  • -[ExDesi Ka Remix King]=-
  • Group: [EXD MILITIA]
  • Others: [ExD$r], [ExSeeders]
  • Topics: 1,764
  • Posts: 3,238
  • Joined: 02-October 08
  • Uploaded 87.78tb
  • Downloaded 648.7gb
  • Ratio 138.57 ratio
  • Thanked: 9928 times

Posted 06 May 2011 - 10:51 AM (#8)



Spiderman Triology 720p x264 Hindi

Posted Image

Screen shots
Posted Image
Posted Image
Posted Image
Posted Image
Posted Image
Posted Image
Posted Image
Posted Image
Posted Image
Posted Image
Posted Image
Posted Image
Posted Image
Posted Image

General
Complete name                    : F:\Spiderman Triology 720p x264 Hindi By-Sawant12[ExDe$]\Spiderman 1 720p x264  Hindi 400Mb By-Sawant12[ExDe$]\Spiderman 1 720p  Hindi 400Mb By-Sawant12[ExDe$].mkv
Format                           : Matroska
File size                        : 439 MiB
Duration                         : 1h 56mn
Overall bit rate                 : 528 Kbps
Movie name                       : Spiderman 1 720p  Hindi 400Mb By-Sawant12[ExDe$]
Encoded date                     : UTC 2011-04-23 01:26:04
Writing application              : mkvmerge v4.6.0 ('Still Crazy After All These Years') built on Mar 10 2011 02:50:32
Writing library                  : libebml v1.2.0 + libmatroska v1.1.0

Video
ID                               : 1
Format                           : AVC
Format/Info                      : Advanced Video Codec
Format profile                   : High@L3.1
Format settings, CABAC           : Yes
Format settings, ReFrames        : 4 frames
Muxing mode                      : Container profile=Unknown@3.1
Codec ID                         : V_MPEG4/ISO/AVC
Width                            : 1 280 pixels
Height                           : 672 pixels
Display aspect ratio             : 1.905
Frame rate mode                  : Variable
Color space                      : YUV
Chroma subsampling               : 4:2:0
Bit depth                        : 8 bits
Scan type                        : Progressive
Title                            : Ripper~SAWANT12
Writing library                  : x264 core 115 r1937 aa21558
Encoding settings                : cabac=1 / ref=3 / deblock=1:0:0 / analyse=0x3:0x113 / me=hex / subme=7 / psy=1 / psy_rd=1.00:0.00 / mixed_ref=1 / me_range=16 / chroma_me=1 / trellis=1 / 8x8dct=1 / cqm=0 / deadzone=21,11 / fast_pskip=1 / chroma_qp_offset=-2 / threads=3 / sliced_threads=0 / nr=0 / decimate=1 / interlaced=0 / bluray_compat=0 / constrained_intra=0 / bframes=3 / b_pyramid=2 / b_adapt=1 / b_bias=0 / direct=1 / weightb=1 / open_gop=0 / weightp=2 / keyint=250 / keyint_min=24 / scenecut=40 / intra_refresh=0 / rc_lookahead=40 / rc=crf / mbtree=1 / crf=35.0 / qcomp=0.60 / qpmin=0 / qpmax=69 / qpstep=4 / ip_ratio=1.40 / aq=1:1.00

Audio
ID                               : 2
Format                           : AAC
Format/Info                      : Advanced Audio Codec
Format version                   : Version 4
Format profile                   : LC
Format settings, SBR             : No
Codec ID                         : A_AAC
Duration                         : 1h 56mn
Channel(s)                       : 2 channels
Channel positions                : Front: L R
Sampling rate                    : 48.0 KHz
Title                            : Ripper~SAWANT12



General
Complete name                    : F:\Spiderman Triology 720p x264 Hindi By-Sawant12[ExDe$]\Spiderman 2 720p x264  Hindi 400Mb By-Sawant12[ExDe$]\Spiderman 2 720p  Hindi 400Mb By-Sawant12[ExDe$].mkv
Format                           : Matroska
File size                        : 395 MiB
Duration                         : 2h 2mn
Overall bit rate                 : 451 Kbps
Encoded date                     : UTC 2011-04-23 08:24:12
Writing application              : mkvmerge v4.6.0 ('Still Crazy After All These Years') built on Mar 10 2011 02:50:32
Writing library                  : libebml v1.2.0 + libmatroska v1.1.0

Video
ID                               : 1
Format                           : AVC
Format/Info                      : Advanced Video Codec
Format profile                   : High@L3.1
Format settings, CABAC           : Yes
Format settings, ReFrames        : 4 frames
Muxing mode                      : Container profile=Unknown@3.1
Codec ID                         : V_MPEG4/ISO/AVC
Duration                         : 2h 2mn
Width                            : 1 280 pixels
Height                           : 528 pixels
Display aspect ratio             : 2.40:1
Frame rate mode                  : Constant
Frame rate                       : 25.000 fps
Color space                      : YUV
Chroma subsampling               : 4:2:0
Bit depth                        : 8 bits
Scan type                        : Progressive
Title                            : Ripper~SAWANT12
Writing library                  : x264 core 115 r1937 aa21558
Encoding settings                : cabac=1 / ref=3 / deblock=1:0:0 / analyse=0x3:0x113 / me=hex / subme=7 / psy=1 / psy_rd=1.00:0.00 / mixed_ref=1 / me_range=16 / chroma_me=1 / trellis=1 / 8x8dct=1 / cqm=0 / deadzone=21,11 / fast_pskip=1 / chroma_qp_offset=-2 / threads=3 / sliced_threads=0 / nr=0 / decimate=1 / interlaced=0 / bluray_compat=0 / constrained_intra=0 / bframes=3 / b_pyramid=2 / b_adapt=1 / b_bias=0 / direct=1 / weightb=1 / open_gop=0 / weightp=2 / keyint=250 / keyint_min=25 / scenecut=40 / intra_refresh=0 / rc_lookahead=40 / rc=crf / mbtree=1 / crf=35.0 / qcomp=0.60 / qpmin=0 / qpmax=69 / qpstep=4 / ip_ratio=1.40 / aq=1:1.00

Audio
ID                               : 2
Format                           : AAC
Format/Info                      : Advanced Audio Codec
Format version                   : Version 4
Format profile                   : LC
Format settings, SBR             : No
Codec ID                         : A_AAC
Duration                         : 2h 2mn
Channel(s)                       : 2 channels
Channel positions                : Front: L R
Sampling rate                    : 48.0 KHz
Title                            : Ripper~SAWANT12
Language                         : Hindi


General
Complete name                    : F:\Spiderman Triology 720p x264 Hindi By-Sawant12[ExDe$]\Spiderman 3 720p x264  Hindi 400Mb By-Sawant12[ExDe$]\Spiderman 3 720p  Hindi 400Mb By-Sawant12[ExDe$].mkv
Format                           : Matroska
File size                        : 419 MiB
Duration                         : 2h 13mn
Overall bit rate                 : 439 Kbps
Movie name                       : Spiderman 3 720p  Hindi 400Mb By-Sawant12[ExDe$].mkv
Encoded date                     : UTC 2011-04-23 12:26:55
Writing application              : mkvmerge v4.6.0 ('Still Crazy After All These Years') built on Mar 10 2011 02:50:32
Writing library                  : libebml v1.2.0 + libmatroska v1.1.0

Video
ID                               : 1
Format                           : AVC
Format/Info                      : Advanced Video Codec
Format profile                   : High@L3.1
Format settings, CABAC           : Yes
Format settings, ReFrames        : 4 frames
Muxing mode                      : Container profile=Unknown@3.1
Codec ID                         : V_MPEG4/ISO/AVC
Duration                         : 2h 13mn
Width                            : 1 280 pixels
Height                           : 528 pixels
Display aspect ratio             : 2.40:1
Frame rate mode                  : Constant
Frame rate                       : 25.000 fps
Color space                      : YUV
Chroma subsampling               : 4:2:0
Bit depth                        : 8 bits
Scan type                        : Progressive
Title                            : Ripper~SAWANT12
Writing library                  : x264 core 115 r1937 aa21558
Encoding settings                : cabac=1 / ref=3 / deblock=1:0:0 / analyse=0x3:0x113 / me=hex / subme=7 / psy=1 / psy_rd=1.00:0.00 / mixed_ref=1 / me_range=16 / chroma_me=1 / trellis=1 / 8x8dct=1 / cqm=0 / deadzone=21,11 / fast_pskip=1 / chroma_qp_offset=-2 / threads=3 / sliced_threads=0 / nr=0 / decimate=1 / interlaced=0 / bluray_compat=0 / constrained_intra=0 / bframes=3 / b_pyramid=2 / b_adapt=1 / b_bias=0 / direct=1 / weightb=1 / open_gop=0 / weightp=2 / keyint=250 / keyint_min=25 / scenecut=40 / intra_refresh=0 / rc_lookahead=40 / rc=crf / mbtree=1 / crf=35.0 / qcomp=0.60 / qpmin=0 / qpmax=69 / qpstep=4 / ip_ratio=1.40 / aq=1:1.00

Audio
ID                               : 2
Format                           : AAC
Format/Info                      : Advanced Audio Codec
Format version                   : Version 4
Format profile                   : LC
Format settings, SBR             : No
Codec ID                         : A_AAC
Duration                         : 2h 13mn
Channel(s)                       : 2 channels
Channel positions                : Front: L R
Sampling rate                    : 48.0 KHz
Title                            : Ripper~SAWANT12
Language                         : Hindi



Posted Image
Hello guest! Please register or sign in to view the links.

Hello guest! Please register or sign in to view the links.

Hello guest! Please register or sign in to view the links.


Posted Image


Posted Image

Posted Image
0


User is offline Michael J. Scofield ™ 

  • ♥♥♥ Love You Sophie ♥♥♥
  • Group: [Administrators]
  • Others: [ExDG$]
  • Topics: 382
  • Posts: 32,945
  • Joined: 11-September 07
  • Uploaded 156.3tb
  • Downloaded 11.28tb
  • Ratio 13.85 ratio
  • LocationIn Arms Of Sophie
  • Thanked: 7917 times

Posted 07 May 2011 - 07:55 AM (#9)

Nice

Thx

Pinned topic

0


User is online Dj Rajiv 

  • -[ExDesi Ka Remix King]=-
  • Group: [EXD MILITIA]
  • Others: [ExD$r], [ExSeeders]
  • Topics: 1,764
  • Posts: 3,238
  • Joined: 02-October 08
  • Uploaded 87.78tb
  • Downloaded 648.7gb
  • Ratio 138.57 ratio
  • Thanked: 9928 times

Posted 07 May 2011 - 11:53 AM (#10)

Rio.2011.Hindi.TSRip.x264.350mb


Posted Image

Release Name: Rio.2011.Hindi.TSRip.x264.350mb-NiCkkkDoN
Release Date: 2011-04-08
Runtime: 1h 26mn
Language: Hindi
Filename: Rio.2011.Hindi.TSRip.x264.350mb-NiCkkkDoN.mkv
Source: n3Kd's PDVD
Size: 1Cd
Genre: Animation | Adventure | Comedy
Video: 720×320 | 2.25:1 | 25.000 fps | x264
Audio: Hindi | MP3 | 96 Kbps | 2 channels | 44.1 KHz
Subs: N/A
IMDB Rating: 7.5/10 (1,123 votes)
RT Critics: 6.6/10 ( 41 reviews)
Directed By: Carlos Saldanha
Starring: Jesse Eisenberg, Anne Hathaway and George Lopez


Posted Image
Posted Image
Posted Image
Posted Image
Posted Image
Posted Image
Posted Image
Posted Image



Posted Image

Hello guest! Please register or sign in to view the links.




Posted Image

This post has been edited by djrajiv2009: 07 May 2011 - 11:54 AM


Posted Image

Posted Image
0


User is online Dj Rajiv 

  • -[ExDesi Ka Remix King]=-
  • Group: [EXD MILITIA]
  • Others: [ExD$r], [ExSeeders]
  • Topics: 1,764
  • Posts: 3,238
  • Joined: 02-October 08
  • Uploaded 87.78tb
  • Downloaded 648.7gb
  • Ratio 138.57 ratio
  • Thanked: 9928 times

Posted 07 May 2011 - 12:13 PM (#11)


WAR (2007) Original DVD


Posted Image

Posted Image

Posted Image
Format                           : Matroska
File size                        : 234 MiB
Duration                         : 49mn 29s
Overall bit rate                 : 661 Kbps
Movie name                       : Rip By DeadMan. Team-ExDe$
Encoded date                     : UTC 2011-04-24 21:50:06
Writing application              : mkvmerge v4.4.0 ('Die Wiederkehr') built on Oct 31 2010 21:52:48
Writing library                  : libebml v1.0.0 + libmatroska v1.0.0

Video
ID                               : 1
Format                           : AVC
Format/Info                      : Advanced Video Codec
Format profile                   : Main@L2.1
Format settings, CABAC           : Yes
Format settings, ReFrames        : 4 frames
Format settings, GOP             : N=1
Muxing mode                      : Header stripping
Codec ID                         : V_MPEG4/ISO/AVC
Duration                         : 49mn 29s
Nominal bit rate                 : 600 Kbps
Width                            : 336 pixels
Height                           : 320 pixels
Display aspect ratio             : 2.25:1
Frame rate mode                  : Variable
Frame rate                       : 25.000 fps
Color space                      : YUV
Chroma subsampling               : 4:2:0
Bit depth                        : 8 bits
Scan type                        : Progressive
Bits/(Pixel*Frame)               : 0.223
Writing library                  : x264 core 112
Encoding settings                : cabac=1 / ref=2 / deblock=1:0:0 / analyse=0x1:0x111 / me=hex / subme=6 / psy=1 / psy_rd=1.00:0.00 / mixed_ref=0 / me_range=16 / chroma_me=1 / trellis=0 / 8x8dct=0 / cqm=0 / deadzone=21,11 / fast_pskip=1 / chroma_qp_offset=-2 / threads=6 / sliced_threads=0 / nr=0 / decimate=1 / interlaced=0 / constrained_intra=0 / bframes=2 / b_pyramid=2 / b_adapt=1 / b_bias=0 / direct=1 / weightb=0 / open_gop=0 / weightp=2 / keyint=250 / keyint_min=25 / scenecut=40 / intra_refresh=0 / rc_lookahead=40 / rc=abr / mbtree=1 / bitrate=600 / ratetol=1.0 / qcomp=0.60 / qpmin=3 / qpmax=51 / qpstep=4 / ip_ratio=1.40 / aq=1:1.00
Language                         : English
Color primaries                  : BT.601-6 525, BT.1358 525, BT.1700 NTSC, SMPTE 170M
Transfer characteristics         : BT.709-5, BT.1361
Matrix coefficients              : BT.601-6 525, BT.1358 525, BT.1700 NTSC, SMPTE 170M

Audio
ID                               : 2
Format                           : MPEG Audio
Format version                   : Version 2
Format profile                   : Layer 3
Mode                             : Joint stereo
Mode extension                   : MS Stereo
Muxing mode                      : Header stripping
Codec ID                         : A_MPEG/L3
Codec ID/Hint                    : MP3
Duration                         : 49mn 29s
Bit rate mode                    : Variable
Channel(s)                       : 2 channels
Sampling rate                    : 22.05 KHz
Compression mode                 : Lossy
Title                            : DeadMan
Language                         : Hindi

part 2

Format                           : Matroska
File size                        : 232 MiB
Duration                         : 48mn 50s
Overall bit rate                 : 664 Kbps
Movie name                       : Rip By DeadMan. Team-ExDe$
Encoded date                     : UTC 2011-04-24 21:50:44
Writing application              : mkvmerge v4.4.0 ('Die Wiederkehr') built on Oct 31 2010 21:52:48
Writing library                  : libebml v1.0.0 + libmatroska v1.0.0

Video
ID                               : 1
Format                           : AVC
Format/Info                      : Advanced Video Codec
Format profile                   : Main@L2.1
Format settings, CABAC           : Yes
Format settings, ReFrames        : 4 frames
Muxing mode                      : Header stripping
Codec ID                         : V_MPEG4/ISO/AVC
Duration                         : 48mn 50s
Nominal bit rate                 : 600 Kbps
Width                            : 336 pixels
Height                           : 304 pixels
Display aspect ratio             : 2.35:1
Frame rate mode                  : Variable
Frame rate                       : 25.000 fps
Color space                      : YUV
Chroma subsampling               : 4:2:0
Bit depth                        : 8 bits
Scan type                        : Progressive
Bits/(Pixel*Frame)               : 0.235
Writing library                  : x264 core 112
Encoding settings                : cabac=1 / ref=2 / deblock=1:0:0 / analyse=0x1:0x111 / me=hex / subme=6 / psy=1 / psy_rd=1.00:0.00 / mixed_ref=0 / me_range=16 / chroma_me=1 / trellis=0 / 8x8dct=0 / cqm=0 / deadzone=21,11 / fast_pskip=1 / chroma_qp_offset=-2 / threads=6 / sliced_threads=0 / nr=0 / decimate=1 / interlaced=0 / constrained_intra=0 / bframes=2 / b_pyramid=2 / b_adapt=1 / b_bias=0 / direct=1 / weightb=0 / open_gop=0 / weightp=2 / keyint=250 / keyint_min=25 / scenecut=40 / intra_refresh=0 / rc_lookahead=40 / rc=abr / mbtree=1 / bitrate=600 / ratetol=1.0 / qcomp=0.60 / qpmin=3 / qpmax=51 / qpstep=4 / ip_ratio=1.40 / aq=1:1.00
Language                         : English
Color primaries                  : BT.601-6 525, BT.1358 525, BT.1700 NTSC, SMPTE 170M
Transfer characteristics         : BT.709-5, BT.1361
Matrix coefficients              : BT.601-6 525, BT.1358 525, BT.1700 NTSC, SMPTE 170M

Audio
ID                               : 2
Format                           : MPEG Audio
Format version                   : Version 2
Format profile                   : Layer 3
Mode                             : Joint stereo
Mode extension                   : MS Stereo
Muxing mode                      : Header stripping
Codec ID                         : A_MPEG/L3
Codec ID/Hint                    : MP3
Duration                         : 48mn 50s
Bit rate mode                    : Variable
Channel(s)                       : 2 channels
Sampling rate                    : 22.05 KHz
Compression mode                 : Lossy
Language                         : Hindi


Posted Image
Posted Image
Posted Image
Posted Image
Posted Image
Posted Image
Posted Image


Posted Image
~*Short Links*~
Hello guest! Please register or sign in to view the links.

Hello guest! Please register or sign in to view the links.


Posted Image


Posted Image

Posted Image
0


User is offline -=!-BOND-!=- 

  • Super Moderator
  • Group: [Inactive Legends]
  • Topics: 479
  • Posts: 6,865
  • Joined: 07-October 09
  • Uploaded 9.18tb
  • Downloaded 115.13gb
  • Ratio 81.61 ratio
  • LocationJamnagar
  • Thanked: 295 times

Posted 07 May 2011 - 12:15 PM (#12)

Great Work Broda...............Keep Rocking........................;)
Posted Image


PM ME TO RESEED MY ANY TORRENT


Posted Image


0


User is online Dj Rajiv 

  • -[ExDesi Ka Remix King]=-
  • Group: [EXD MILITIA]
  • Others: [ExD$r], [ExSeeders]
  • Topics: 1,764
  • Posts: 3,238
  • Joined: 02-October 08
  • Uploaded 87.78tb
  • Downloaded 648.7gb
  • Ratio 138.57 ratio
  • Thanked: 9928 times

Posted 08 May 2011 - 11:32 AM (#13)



Rio 2011 R5 Line Dual Audio [Hin-Eng] by imkhan


Posted Image


General
Complete name                    : F:\EXDESI.COM\Rio 2011 R5 Line Dual Audio [Hin-Eng] by imkhan -=[TDT]=-\Rio 2011 R5 Line Dual Audio [Hin-Eng] by imkhan -=[TDT]=-.mkv
Format                           : Matroska
File size                        : 436 MiB
Duration                         : 1h 25mn
Overall bit rate                 : 717 Kbps
Movie name                       : Rio 2011 R5 Line Dual Audio [Hin-Eng] by imkhan -=[TDT]=-
Encoded date                     : UTC 2011-05-07 05:35:58
Writing application              : mkvmerge v4.7.0 ('Just Like You Imagined') built on Apr 21 2011 01:13:14
Writing library                  : libebml v1.2.0 + libmatroska v1.1.0

Video
ID                               : 1
Format                           : AVC
Format/Info                      : Advanced Video Codec
Format profile                   : 
Hello guest! Please register or sign in to view the links.
Format settings, CABAC : Yes Format settings, ReFrames : 3 frames Muxing mode : Container
Hello guest! Please register or sign in to view the links.
Codec ID : V_MPEG4/ISO/AVC Duration : 1h 25mn Bit rate : 574 Kbps Width : 720 pixels Height : 320 pixels Display aspect ratio : 2.25:1 Frame rate : 25.000 fps Resolution : 24 bits Colorimetry : 4:2:0 Scan type : Progressive Bits/(Pixel*Frame) : 0.100 Stream size : 349 MiB (80%) Title : imkhan Writing library : x264 core 104 r1683 62997d6 Encoding settings : cabac=1 / ref=3 / deblock=1:0:0 / analyse=0x3:0x133 / me=umh / subme=7 / psy=1 / psy_rd=1.00:0.00 / mixed_ref=1 / me_range=16 / chroma_me=1 / trellis=1 / 8x8dct=1 / cqm=0 / deadzone=21,11 / fast_pskip=1 / chroma_qp_offset=-2 / threads=6 / sliced_threads=0 / nr=0 / decimate=1 / interlaced=0 / constrained_intra=0 / bframes=3 / b_pyramid=0 / b_adapt=1 / b_bias=0 / direct=1 / weightb=1 / open_gop=0 / weightp=2 / keyint=250 / keyint_min=25 / scenecut=40 / intra_refresh=0 / rc_lookahead=40 / rc=crf / mbtree=1 / crf=22.0 / qcomp=0.60 / qpmin=10 / qpmax=51 / qpstep=4 / vbv_maxrate=700 / vbv_bufsize=700 / crf_max=0.0 / ip_ratio=1.40 / aq=1:1.00 / nal_hrd=none Language : Hindi Audio #1 ID : 2 Format : MPEG Audio Format version : Version 2 Format profile : Layer 3 Codec ID : A_MPEG/L3 Codec ID/Hint : MP3 Duration : 1h 25mn Bit rate mode : Constant Bit rate : 64.0 Kbps Channel(s) : 2 channels Sampling rate : 22.05 KHz Resolution : 16 bits Stream size : 38.9 MiB (9%) Title : imkhan Writing library : LAME3.98.2 Language : Hindi Audio #2 ID : 3 Format : MPEG Audio Format version : Version 2 Format profile : Layer 3 Codec ID : A_MPEG/L3 Codec ID/Hint : MP3 Duration : 1h 25mn Bit rate mode : Constant Bit rate : 64.0 Kbps Channel(s) : 2 channels Sampling rate : 22.05 KHz Resolution : 16 bits Stream size : 38.9 MiB (9%) Title : imkhan


Posted Image
Posted Image
Posted Image
Posted Image
Posted Image
Posted Image
Posted Image
Posted Image
Posted Image
Posted Image
Posted Image
Posted Image


Posted Image
~*Single Links*~
Hello guest! Please register or sign in to view the links.


Posted Image
~*Single Links*~
Hello guest! Please register or sign in to view the links.



Posted Image


Posted Image

Posted Image
0


User is online Dj Rajiv 

  • -[ExDesi Ka Remix King]=-
  • Group: [EXD MILITIA]
  • Others: [ExD$r], [ExSeeders]
  • Topics: 1,764
  • Posts: 3,238
  • Joined: 02-October 08
  • Uploaded 87.78tb
  • Downloaded 648.7gb
  • Ratio 138.57 ratio
  • Thanked: 9928 times

Posted 08 May 2011 - 12:02 PM (#14)



[Hindi Dubbed] Female 300 | 2011 | 500MB | CRYME.0007 | Team EXD

Posted Image


Posted Image

General
Complete name : Female 300 (2011) Hindi CRYME.0007 [Team EXD].mkv
Format : Matroska
File size : 482 MiB
Duration : 1h 32mn
Overall bit rate : 731 Kbps
Encoded date : UTC 2011-05-05 11:32:42
Writing application : mkvmerge v4.2.0 ('No Talking') built on Jul 28 2010 18:38:23
Writing library : libebml v1.0.0 + libmatroska v1.0.0

Posted Image
Video
ID : 1
Format : AVC
Format/Info : Advanced Video Codec
Format profile : High@L2.0
Format settings, CABAC : Yes
Format settings, ReFrames : 4 frames
Muxing mode : Header stripping
Codec ID : V_MPEG4/ISO/AVC
Duration : 1h 32mn
Bit rate : 633 Kbps
Width : 352 pixels
Height : 288 pixels
Display aspect ratio : 4:3
Frame rate : 25.000 fps
Standard : PAL
Color space : YUV
Chroma subsampling : 4:2:0
Bit depth : 8 bits
Scan type : Progressive
Bits/(Pixel*Frame) : 0.250
Stream size : 409 MiB (85%)
Writing library : x264 core 112 r1834 a51816a

Posted Image
Audio
ID : 2
Format : MPEG Audio
Format version : Version 1
Format profile : Layer 3
Muxing mode : Header stripping
Codec ID : A_MPEG/L3
Codec ID/Hint : MP3
Duration : 1h 32mn
Bit rate mode : Constant
Bit rate : 96.0 Kbps
Channel(s) : 2 channels
Sampling rate : 44.1 KHz
Compression mode : Lossy
Stream size : 63.4 MiB (13%)
Writing library : LAME3.98r
Encoding settings : -m s -V 4 -q 2 -lowpass 15.1 -b 96

Posted Image

Hello guest! Please register or sign in to view the links.


Posted Image
~*Single Links*~
http://www.fileserve.com/file/R6RNJb2
Posted Image
~*Single Links*~
http://www.duckload.com/download/5487571/Female_300_2011_Hindi_CRYME.0007_TeamEXD_.mkv

Posted Image


Posted Image

Posted Image
0


User is online Dj Rajiv 

  • -[ExDesi Ka Remix King]=-
  • Group: [EXD MILITIA]
  • Others: [ExD$r], [ExSeeders]
  • Topics: 1,764
  • Posts: 3,238
  • Joined: 02-October 08
  • Uploaded 87.78tb
  • Downloaded 648.7gb
  • Ratio 138.57 ratio
  • Thanked: 9928 times

Posted 09 May 2011 - 12:36 PM (#15)

Freddy vs. Jason (2003) DvdRip 480p AAC Hindi


Posted Image

Posted Image
Freddy vs. Jason (2003) | DvdRip | 480p | AAC | Hindi | BHATTI87
General
Unique ID                       : 234869459554468412877151457507482548286 (0xB0B236679107BD7EABE3CC7ED324383E)
Complete name                   : F:\Freddy vs. Jason (2003) | DvdRip | 480p | AAC | Hindi | BHATTI87\Freddy vs. Jason (2003)  DvdRip  480p  AAC  Hindi  BHATTI87.mkv
Format                                  : Matroska
File size                       : 703 MiB
Duration                                : 1h 37mn
Overall bit rate                        : 1 009 Kbps
Encoded date                            : UTC 2011-05-06 15:43:13
Writing application             : mkvmerge v4.6.0 ('Still Crazy After All These Years') built on Mar 10 2011 02:50:32
Writing library                 : libebml v1.2.0 + libmatroska v1.1.0

Video
ID                                      : 1
Format                                  : AVC
Format/Info                     : Advanced Video Codec
Format profile                          : High@L3.1
Format settings, CABAC                  : Yes
Format settings, ReFrames       : 5 frames
Codec ID                                : V_MPEG4/ISO/AVC
Duration                                : 1h 37mn
Nominal bit rate                        : 943 Kbps
Width                           : 720 pixels
Height                                  : 368 pixels
Display aspect ratio                    : 1.957
Frame rate                              : 23.976 fps
Color space                     : YUV
Chroma subsampling                      : 4:2:0
Bit depth                       : 8 bits
Scan type                       : Progressive
Bits/(Pixel*Frame)                      : 0.148
Writing library                 : x264 core 114 r1913 5fd3dce
Encoding settings               : cabac=1 / ref=5 / deblock=1:-1:-1 / analyse=0x3:0x133 / me=umh / subme=8 / psy=1 / psy_rd=1.00:0.00 / mixed_ref=1 / me_range=24 / chroma_me=1 / trellis=2 / 8x8dct=1 / cqm=0 / deadzone=21,11 / fast_pskip=1 / chroma_qp_offset=-2 / threads=3 / sliced_threads=0 / nr=0 / decimate=1 / interlaced=0 / constrained_intra=0 / bframes=3 / b_pyramid=2 / b_adapt=2 / b_bias=0 / direct=3 / weightb=1 / open_gop=0 / weightp=2 / keyint=250 / keyint_min=23 / scenecut=40 / intra_refresh=0 / rc_lookahead=50 / rc=2pass / mbtree=1 / bitrate=943 / ratetol=1.0 / qcomp=0.60 / qpmin=10 / qpmax=69 / qpstep=4 / cplxblur=20.0 / qblur=0.5 / ip_ratio=1.40 / aq=1:1.00

Audio
ID                                      : 2
Format                                  : AAC
Format/Info                     : Advanced Audio Codec
Format profile                          : HE-AAC / LC
Codec ID                                : A_AAC
Duration                                : 1h 37mn
Channel(s)                              : 2 channels
Channel positions               : Front: L R
Sampling rate                   : 48.0 KHz / 24.0 KHz
Compression mode                        : Lossy


Posted Image
Posted Image
Posted Image
Posted Image
Posted Image
Posted Image
Posted Image
Posted Image
Posted Image



Posted Image
~*Single Links*~
Hello guest! Please register or sign in to view the links.


Hello guest! Please register or sign in to view the links.

Hello guest! Please register or sign in to view the links.

Hello guest! Please register or sign in to view the links.


Posted Image
~*Single Links*~
Hello guest! Please register or sign in to view the links.


~*Short Links*~

Hello guest! Please register or sign in to view the links.

Hello guest! Please register or sign in to view the links.

Hello guest! Please register or sign in to view the links.


Posted Image


Posted Image

Posted Image
0


User is online Dj Rajiv 

  • -[ExDesi Ka Remix King]=-
  • Group: [EXD MILITIA]
  • Others: [ExD$r], [ExSeeders]
  • Topics: 1,764
  • Posts: 3,238
  • Joined: 02-October 08
  • Uploaded 87.78tb
  • Downloaded 648.7gb
  • Ratio 138.57 ratio
  • Thanked: 9928 times

Posted 09 May 2011 - 08:36 PM (#16)



Fast And Furious 5 (2011) [Hindi Dubbed]1Cd PDvdRip XviD


Posted Image

General
Complete name : Fast And Furious 5 (2011) [Hindi Dubbed]1Cd PDvdRip XviD
Format : MPEG-PS
File size : 650 MiB
Duration : 1h 55mn
Overall bit rate : 786 Kbps


Video
ID : 224 (0xE0)
Format : MPEG Video
Format version : Version 2
Format settings, BVOP : Yes
Format settings, Matrix : Default
Duration : 1h 55mn
Bit rate mode : Constant
Bit rate : 706 Kbps
Nominal bit rate : 1 150 Kbps
Width : 352 pixels
Height : 288 pixels
Display aspect ratio : 1.222
Frame rate : 25.000 fps
Standard : PAL
Color space : YUV
Bit depth : 8 bits
Scan type : Progressive
Compression mode : Lossy
Bits/(Pixel*Frame) : 0.279
Stream size : 584 MiB (90%)


Audio
ID : 192 (0xC0)
Format : MPEG Audio
Format version : Version 1
Format profile : Layer 2
Duration : 1h 55mn
Bit rate mode : Constant
Bit rate : 64.0 Kbps
Channel(s) : 2 channels
Sampling rate : 48.0 KHz
Compression mode : Lossy
Stream size : 52.9 MiB (8%)


Posted Image
Posted Image
Posted Image
Posted Image
Posted Image

Posted Image
~*Single Links*~
Hello guest! Please register or sign in to view the links.


~*Short Links*~
Hello guest! Please register or sign in to view the links.

Hello guest! Please register or sign in to view the links.

Hello guest! Please register or sign in to view the links.

Hello guest! Please register or sign in to view the links.



Posted Image
~*Single Links*~
Hello guest! Please register or sign in to view the links.


~*Short Links*~

Hello guest! Please register or sign in to view the links.

Hello guest! Please register or sign in to view the links.

Hello guest! Please register or sign in to view the links.

Hello guest! Please register or sign in to view the links.




Posted Image


Posted Image

Posted Image
0


User is online Dj Rajiv 

  • -[ExDesi Ka Remix King]=-
  • Group: [EXD MILITIA]
  • Others: [ExD$r], [ExSeeders]
  • Topics: 1,764
  • Posts: 3,238
  • Joined: 02-October 08
  • Uploaded 87.78tb
  • Downloaded 648.7gb
  • Ratio 138.57 ratio
  • Thanked: 9928 times

Posted 10 May 2011 - 09:35 AM (#17)



U-571- (2000)DVD- ORIGNAL HINDI AUDIO

Posted Image

RIP INFO


Complete name : U-571- DVD- ORIGNAL HINDI AUDIO
Format : Matroska
File size : 524 MiB
Duration : 1h 44mn
Overall bit rate : 700 Kbps
Movie name : U-571- DVD- ORIGNAL HINDI AUDIO



Video
ID : 1
Format : MPEG-4 Visual
Format profile : Advanced Simple@L1
Format settings, BVOP : Yes
Format settings, QPel : No
Format settings, GMC : No warppoints


Codec ID/Hint : DivX
Duration : 1h 44mn
Bit rate : 622 Kbps
Width : 352 pixels
Height : 288 pixels
Display aspect ratio : 4:3
Original display aspect ratio : 4:3
Frame rate : 25.000 fps
Standard : PAL
Color space : YUV
Chroma subsampling : 4:2:0
Bit depth : 8 bits
Scan type : Progressive
Compression mode : Lossy
Bits/(Pixel*Frame) : 0.245
Stream size : 466 MiB (89%)
Title : U-571- DVD- ORIGNAL HINDI AUDIO


Audio
ID : 2
Format : MPEG Audio
Format version : Version 1
Format profile : Layer 3
Mode : Joint stereo
Mode extension : MS Stereo
Muxing mode : Header stripping
Codec ID : A_MPEG/L3
Codec ID/Hint : MP3
Duration : 1h 44mn
Bit rate mode : Constant
Bit rate : 64.0 Kbps
Channel(s) : 2 channels
Sampling rate : 48.0 KHz
Compression mode : Lossy
Stream size : 47.9 MiB (9%)


SCREENSHOTS
Posted Image
Posted Image
Posted Image
Posted Image
Posted Image


Posted Image
Hello guest! Please register or sign in to view the links.



Posted Image
Hello guest! Please register or sign in to view the links.


Posted Image

Posted Image
0


User is online Dj Rajiv 

  • -[ExDesi Ka Remix King]=-
  • Group: [EXD MILITIA]
  • Others: [ExD$r], [ExSeeders]
  • Topics: 1,764
  • Posts: 3,238
  • Joined: 02-October 08
  • Uploaded 87.78tb
  • Downloaded 648.7gb
  • Ratio 138.57 ratio
  • Thanked: 9928 times

Posted 10 May 2011 - 01:00 PM (#18)




Air.Force.One.1997.BRrip.720p.Dual.Audio.Eng-Hindi


Posted Image




Posted Image

The President of the United States is on a journey home after making a speech in Moscow. But on the journey, Russian hi-jakers take over the plane, disguising themselves as newspaper reporters. They want the President to ring Moscow and release General Redek. But they think that the President has escaped in the pod. But the president is really still on board air force One attempting to regain control of the plane and to rescue his wife and daughter.

Director: Wolfgang Petersen
Writer: Andrew W. Marlowe
Stars: Harrison Ford, Gary Oldman and Glenn Close

Posted Image

General

Complete name : Air.Force.One.1997.BRrip.720p.Dual.Audio.Eng-Hindi~MSBHATTI.mkv
Format : Matroska
File size : 1.64 GiB
Duration : 1h 59mn
Overall bit rate : 1 961 Kbps
Encoded date : UTC 2011-04-23 05:16:39
Writing application : mkvmerge v3.3.0 ('Language') built on Mar 24 2010 14:59:24
Writing library : libebml v0.8.0 + libmatroska v0.9.0

Video

ID : 1
Format : AVC
Format/Info : Advanced Video Codec
Format profile : Main@L4.1
Format settings, CABAC : Yes
Format settings, ReFrames : 4 frames
Codec ID : V_MPEG4/ISO/AVC
Duration : 1h 59mn
Nominal bit rate : 1 460 Kbps
Width : 1 280 pixels
Height : 528 pixels
Display aspect ratio : 2.40:1
Frame rate : 25.000 fps
Original frame rate : 23.976 fps
Color space : YUV
Chroma subsampling : 4:2:0
Bit depth : 8 bits
Scan type : Progressive
Bits/(Pixel*Frame) : 0.086
Writing library : x264 core 68 r1183M f21daff
Encoding settings : cabac=1 / ref=4 / deblock=1:0:0 / analyse=0x1:0x111 / me=hex / subme=6 / psy_rd=1.0:0.0 / mixed_ref=1 / me_range=16 / chroma_me=1 / trellis=1 / 8x8dct=0 / cqm=0 / deadzone=21,11 / chroma_qp_offset=-2 / threads=3 / nr=0 / decimate=1 / mbaff=0 / bframes=2 / b_pyramid=0 / b_adapt=1 / b_bias=0 / direct=1 / wpredb=0 / keyint=250 / keyint_min=25 / scenecut=40 / rc=abr / bitrate=1460 / ratetol=1.0 / qcomp=0.60 / qpmin=10 / qpmax=51 / qpstep=4 / ip_ratio=1.40 / pb_ratio=1.30 / aq=1:1.00

Audio #1

ID : 2
Format : AAC
Format/Info : Advanced Audio Codec
Format profile : LC
Codec ID : A_AAC
Duration : 1h 59mn
Channel(s) : 6 channels
Channel positions : Front: L C R, Side: L R, LFE
Sampling rate : 48.0 KHz
Compression mode : Lossy
Title : MSBHATTI
Language : English

Audio #2

ID : 3
Format : MPEG Audio
Format version : Version 1
Format profile : Layer 3
Codec ID : A_MPEG/L3
Codec ID/Hint : MP3
Duration : 1h 59mn
Bit rate mode : Constant
Bit rate : 256 Kbps
Channel(s) : 2 channels
Sampling rate : 48.0 KHz
Compression mode : Lossy
Stream size : 219 MiB (13%)
Title : MSBHATTI
Language : Hindi


Posted Image
Posted Image
Posted Image
Posted Image
Posted Image
Posted Image
Posted Image
Posted Image
Posted Image
Posted Image
Posted Image



Posted Image
~*Single Links*~
Hello guest! Please register or sign in to view the links.


~*Short Links*~

Hello guest! Please register or sign in to view the links.

Hello guest! Please register or sign in to view the links.

Hello guest! Please register or sign in to view the links.



Posted Image
Hello guest! Please register or sign in to view the links.

Hello guest! Please register or sign in to view the links.

Hello guest! Please register or sign in to view the links.


Posted Image

Posted Image
0


User is offline Michael J. Scofield ™ 

  • ♥♥♥ Love You Sophie ♥♥♥
  • Group: [Administrators]
  • Others: [ExDG$]
  • Topics: 382
  • Posts: 32,945
  • Joined: 11-September 07
  • Uploaded 156.3tb
  • Downloaded 11.28tb
  • Ratio 13.85 ratio
  • LocationIn Arms Of Sophie
  • Thanked: 7917 times

Posted 11 May 2011 - 02:36 AM (#19)

NIce

Thx

Keep It Up

0


User is offline -=ToM=- 

  • !!! Open !!!
  • Group: [EXD MANAGEMENT]
  • Others: [Team ExD], [XMR]
  • Topics: 533
  • Posts: 8,682
  • Joined: 20-November 07
  • Uploaded 19.12tb
  • Downloaded 405.24gb
  • Ratio 48.31 ratio
  • LocationCLASSIFIED
  • Thanked: 3303 times

Posted 11 May 2011 - 10:56 AM (#20)

Nice Hai..

Superb..

Thread Rated..!!

0


Share this topic:



Old topic!
Guest, the last post of this topic is over {days} days and a new post will now be considered as flood!

  • 17 Pages +
  • 1
  • 2
  • 3
  • Last »
  • You cannot start a new topic
  • This topic is locked


Enter your sign in name and password


Sign in options
  Or sign in with these services