ExDesi.com Desi Torrents Links and Streams: Ek Phool Do Mali (1969) 2CD XViD 6 Channels AC3 ESubs {ExD|XMR|ExS} - ExDesi.com Desi Torrents Links and Streams

Jump to content

Page 1 of 1
  • You cannot start a new topic
  • This topic is locked

Old topic!
Guest, the last post of this topic is over 180 days and a new post will now be considered as flood!

Rate Topic: -----

User is offline -=Rangeela=- 

  • -=Rangeela=-
  • Group: [ExD Elite Team]
  • Others: [EXD MANAGEMENT], [ExDG$], [Team ExD], [XMR]
  • Topics: 1,394
  • Posts: 8,918
  • Joined: 20-October 07
  • Uploaded 51.94tb
  • Downloaded 247.92gb
  • Ratio 214.53 ratio
  • Thanked: 7268 times

Posted 19 January 2011 - 07:22 PM (#1)

Ek Phool Do Mali (1969) 2CD XViD 6 Channels AC3 ESubs {ExD|XMR|ExS}


Ek Phool Do Mali (1969) 2CD XViD 6 Channels AC3 Sound English Subtitles

Posted Image
Posted Image
Posted Image

Hello guest! Please register or sign in to view the links.


*File Info*


[LEFT]Format                           : AVI
Format/Info                      : Audio Video Interleave
File size                        : 1.36 GiB
Duration                         : 2h 37mn
Overall bit rate                 : 1 240 Kbps

Video
ID                               : 0
Format                           : MPEG-4 Visual
Format profile                   : AdvancedSimple@L5
Format settings, BVOP            : Yes
Format settings, QPel            : Yes
Format settings, GMC             : No warppoints
Format settings, Matrix          : Default (MPEG)
Codec ID                         : XVID
Codec ID/Hint                    : XviD
Duration                         : 2h 37mn
Bit rate                         : 1 039 Kbps
Width                            : 624 pixels
Height                           : 448 pixels
Display aspect ratio             : 1.393
Frame rate                       : 23.976 fps
Resolution                       : 24 bits
Colorimetry                      : 4:2:0
Scan type                        : Progressive
Bits/(Pixel*Frame)               : 0.155
Stream size                      : 1.14 GiB (84%)
Writing library                  : XviD 1.2.1 (UTC 2008-12-04)

Audio
ID                               : 1
Format                           : AC-3
Format/Info                      : Audio Coding 3
Codec ID                         : 2000
Duration                         : 2h 37mn
Bit rate mode                    : Constant
Bit rate                         : 192 Kbps
Channel(s)                       : 6 channels
Channel positions                : Front: L C R, Surround: L R, LFE
Sampling rate                    : 48.0 KHz
Resolution                       : 16 bits
Stream size                      : 216 MiB (15%)
Alignment                        : Aligned on interleaves
Interleave, duration             : 42 ms (1.00 video frame)
[/LEFT]


Ripper Myself(Ajit)
Source DVD9
Subs English

XMR Encode! Enjoy!

*Movie Info*

Hello guest! Please register or sign in to view the links.

Hello guest! Please register or sign in to view the links.


*Screenshots*

Hello guest! Please register or sign in to view the links.

Hello guest! Please register or sign in to view the links.

Hello guest! Please register or sign in to view the links.

Hello guest! Please register or sign in to view the links.

Hello guest! Please register or sign in to view the links.

Hello guest! Please register or sign in to view the links.

Hello guest! Please register or sign in to view the links.

Hello guest! Please register or sign in to view the links.

Hello guest! Please register or sign in to view the links.


<< Sample wid Torrent >>

:balle:Thanks Bolne ka Bhailog:balle:

*Plz giv proper Credits to Team Exd|XMR|ExS & Me wherever u release dis share*

Attached File  Ek Phool Do Maali 2CD.torrent Toggle

Filename
Ek Phool Do Maali 2CD
Filesize
1.37gb
Files
4
Health
Seeders: 0 Leechers: 0 Completed: 1
ratio ---


ExD-XMR
"Inactive from Feb"
22


Thanked by 4 Members:

User is offline -=Rangeela=- 

  • -=Rangeela=-
  • Group: [ExD Elite Team]
  • Others: [EXD MANAGEMENT], [ExDG$], [Team ExD], [XMR]
  • Topics: 1,394
  • Posts: 8,918
  • Joined: 20-October 07
  • Uploaded 51.94tb
  • Downloaded 247.92gb
  • Ratio 214.53 ratio
  • Thanked: 7268 times

Posted 19 January 2011 - 07:24 PM (#2)

Xtreme seeding has started!
ExD-XMR
"Inactive from Feb"
0


User is offline akbpak 

  • Ripper
  • Group: Members
  • Topics: 22
  • Posts: 132
  • Joined: 11-October 09
  • Uploaded 1.43tb
  • Downloaded 94.84gb
  • Ratio 15.41 ratio
  • LocationUnder Sky
  • Thanked: 168 times

Posted 20 January 2011 - 03:21 AM (#3)

ajit bhai :)
0


User is offline exmobile 

  • Registered Members
  • Group: Members
  • Topics: 28
  • Posts: 7,287
  • Joined: 22-October 09
  • Uploaded 152.19gb
  • Downloaded 13.59gb
  • Ratio 11.20 ratio
  • LocationINDIA, New Delhi
  • Thanked: 3 times

Posted 20 January 2011 - 05:31 PM (#4)

:) " Nice Work, keep it Up " :wow:
0


User is offline punjabi_boy 

  • EXD MGMT
  • Group: [EXD MANAGEMENT]
  • Others: [Team ExD], [XMR]
  • Topics: 885
  • Posts: 5,226
  • Joined: 22-March 08
  • Uploaded 114.41tb
  • Downloaded 1.21tb
  • Ratio 94.18 ratio
  • Thanked: 6749 times

Posted 22 January 2011 - 02:25 PM (#5)

mast share
0


User is offline pca1962 

  • ExD ka Member
  • PipPip
  • Group: Members
  • Topics: 0
  • Posts: 16
  • Joined: 20-January 11
  • Uploaded 112.73gb
  • Downloaded 48.02gb
  • Ratio 2.35 ratio
  • Thanked: 0 times

Posted 23 January 2011 - 08:28 PM (#6)

Thank you...
0


Share this topic:



Old topic!
Guest, the last post of this topic is over {days} days and a new post will now be considered as flood!

Page 1 of 1
  • You cannot start a new topic
  • This topic is locked


Enter your sign in name and password


Sign in options
  Or sign in with these services